Los Ilusionistas 2 (2016) REMUX 1080p Latino

15 vistas
1 estrella2 estrellas3 estrellas4 estrellas5 estrellas (1 votos, promedio: 5,00 de 5)
Cargando...

Información de Los Ilusionistas 2 (2016) REMUX 1080p Latino

Datos de la película

  • Calidad: Full 1080p
  • Audio: Se especifica abajo de la Sinopsis
  • Subtitulos: Español Latino PGS - Ingles PGS
  • Resolución: 1920x1080p
  • Formato: MKV
  • Codec: H.264
  • Encoder: CinefiloCool
  • Mediainfo: Clic para Mostrar Datos Ver
  • Los Ilusionistas 2 (2016) REMUX 1080p Latino-CMHDD.mkv
    Format                      : Matroska
    Format version              : Version 4
    File size                   : 31.6 GiB
    Duration                    : 2 h 9 min
    Overall bit rate mode       : Variable
    Overall bit rate            : 35.1 Mb/s
    Movie name                  : Now You See Me 2 (2016) CinemaniaHDD.Net
    Encoded date                : UTC 2020-12-25 21:10:17
    Writing application         : mkvmerge v51.0.0 ('I Wish') 64-bit
    Writing library             : libebml v1.4.0 + libmatroska v1.6.2
    Attachments                 : CINEMANIAHD.png

    Video
    ID                          : 1
    Format                      : AVC
    Format/Info                 : Advanced Video Codec
    Format profile              : High@L4.1
    Format settings             : CABAC / 4 Ref Frames
    Format settings, CABAC      : Yes
    Format settings, Reference  : 4 frames
    Codec ID                    : V_MPEG4/ISO/AVC
    Duration                    : 2 h 9 min
    Bit rate mode               : Variable
    Bit rate                    : 29.0 Mb/s
    Maximum bit rate            : 35.0 Mb/s
    Width                       : 1 920 pixels
    Height                      : 1 080 pixels
    Display aspect ratio        : 16:9
    Frame rate mode             : Constant
    Frame rate                  : 23.976 (24000/1001) FPS
    Color space                 : YUV
    Chroma subsampling          : 4:2:0
    Bit depth                   : 8 bits
    Scan type                   : Progressive
    Bits/(Pixel*Frame)          : 0.583
    Stream size                 : 26.2 GiB (83%)
    Title                       : REMUX HD1080p [CinemaniaHDD]
    Default                     : Yes
    Forced                      : No

    Audio #1
    ID                          : 2
    Format                      : AC-3
    Format/Info                 : Audio Coding 3
    Commercial name             : Dolby Digital
    Codec ID                    : A_AC3
    Duration                    : 2 h 9 min
    Bit rate mode               : Constant
    Bit rate                    : 640 kb/s
    Channel(s)                  : 6 channels
    Channel layout              : L R C LFE Ls Rs
    Sampling rate               : 48.0 kHz
    Frame rate                  : 31.250 FPS (1536 SPF)
    Compression mode            : Lossy
    Stream size                 : 592 MiB (2%)
    Title                       : Español Latino [CinemaniaHDD]
    Language                    : Spanish
    Service kind                : Complete Main
    Default                     : Yes
    Forced                      : No

    Audio #2
    ID                          : 3
    Format                      : MLP FBA 16-ch
    Format/Info                 : Meridian Lossless Packing FBA with 16-channel presentation
    Commercial name             : Dolby TrueHD with Dolby Atmos
    Codec ID                    : A_TRUEHD
    Duration                    : 2 h 9 min
    Bit rate mode               : Variable
    Bit rate                    : 4 668 kb/s
    Maximum bit rate            : 6 357 kb/s
    Channel(s)                  : 8 channels
    Channel layout              : L R C LFE Ls Rs Lb Rb
    Sampling rate               : 48.0 kHz
    Frame rate                  : 1 200.000 FPS (40 SPF)
    Compression mode            : Lossless
    Stream size                 : 4.21 GiB (13%)
    Title                       : Ingles [CinemaniaHDD]
    Language                    : English
    Default                     : No
    Forced                      : No
    Number of dynamic objects   : 15
    Bed channel count           : 1 channel
    Bed channel configuration   : LFE

    Audio #3
    ID                          : 4
    Format                      : AC-3
    Format/Info                 : Audio Coding 3
    Commercial name             : Dolby Digital
    Codec ID                    : A_AC3
    Duration                    : 2 h 9 min
    Bit rate mode               : Constant
    Bit rate                    : 640 kb/s
    Channel(s)                  : 6 channels
    Channel layout              : L R C LFE Ls Rs
    Sampling rate               : 48.0 kHz
    Frame rate                  : 31.250 FPS (1536 SPF)
    Compression mode            : Lossy
    Stream size                 : 592 MiB (2%)
    Title                       : Ingles AC3 [CinemaniaHDD]
    Language                    : English
    Service kind                : Complete Main
    Default                     : No
    Forced                      : No

    Text #1
    ID                          : 5
    Format                      : PGS
    Muxing mode                 : zlib
    Codec ID                    : S_HDMV/PGS
    Codec ID/Info               : Picture based subtitle format used on BDs/HD-DVDs
    Duration                    : 1 h 1 min
    Bit rate                    : 179 b/s
    Count of elements           : 10
    Stream size                 : 80.6 KiB (0%)
    Title                       : Forzados-PGS [CinemaniaHDD]
    Language                    : Spanish
    Default                     : Yes
    Forced                      : No

    Text #2
    ID                          : 6
    Format                      : PGS
    Muxing mode                 : zlib
    Codec ID                    : S_HDMV/PGS
    Codec ID/Info               : Picture based subtitle format used on BDs/HD-DVDs
    Duration                    : 2 h 0 min
    Bit rate                    : 46.4 kb/s
    Count of elements           : 3793
    Stream size                 : 39.9 MiB (0%)
    Title                       : Español-PGS [CinemaniaHDD]
    Language                    : Spanish
    Default                     : No
    Forced                      : No

    Text #3
    ID                          : 7
    Format                      : PGS
    Muxing mode                 : zlib
    Codec ID                    : S_HDMV/PGS
    Codec ID/Info               : Picture based subtitle format used on BDs/HD-DVDs
    Duration                    : 2 h 0 min
    Bit rate                    : 50.2 kb/s
    Count of elements           : 3845
    Stream size                 : 43.1 MiB (0%)
    Title                       : Ingles-PGS [CinemaniaHDD]
    Language                    : English
    Default                     : No
    Forced                      : No

    Text #4
    ID                          : 8
    Format                      : UTF-8
    Codec ID                    : S_TEXT/UTF8
    Codec ID/Info               : UTF-8 Plain Text
    Duration                    : 1 h 1 min
    Bit rate                    : 0 b/s
    Count of elements           : 6
    Stream size                 : 146 Bytes (0%)
    Title                       : Forzados-SRT [CinemaniaHDD]
    Language                    : Spanish
    Default                     : No
    Forced                      : No

    Text #5
    ID                          : 9
    Format                      : UTF-8
    Codec ID                    : S_TEXT/UTF8
    Codec ID/Info               : UTF-8 Plain Text
    Duration                    : 2 h 0 min
    Bit rate                    : 77 b/s
    Count of elements           : 1889
    Stream size                 : 68.3 KiB (0%)
    Title                       : Español-SRT [CinemaniaHDD]
    Language                    : Spanish
    Default                     : No
    Forced                      : No

    Menu
    00:00:00.000                : en:Chapter 1
    00:07:05.133                : en:Chapter 2
    00:16:03.838                : en:Chapter 3
    00:25:29.570                : en:Chapter 4
    00:33:16.828                : en:Chapter 5
    00:39:57.645                : en:Chapter 6
    00:48:07.718                : en:Chapter 7
    00:53:34.711                : en:Chapter 8
    01:03:53.246                : en:Chapter 9
    01:14:00.561                : en:Chapter 10
    01:20:23.569                : en:Chapter 11
    01:26:37.400                : en:Chapter 12
    01:32:37.051                : en:Chapter 13
    01:38:46.837                : en:Chapter 14
    01:48:13.529                : en:Chapter 15
    01:54:04.921                : en:Chapter 16

  • Peso: 31.6 GiB

Sinopsis

Descargar Los Ilusionistas 2 (2016) REMUX 1080p Latino. Un año después de despistar al FBI y conseguir la admiración del público con sus espectáculos mentales, los cuatro jinetes vuelven a la luz pública, pero un nuevo enemigo se propone arruinar su golpe más espectacular y peligroso hasta la fecha… Secuela de «Ahora me ves» del 2013.

Audio Español Latino AC3  5.1 Bluray – Ingles True HD 7.1 + AC3 5.1 Bluray

Ficha técnica

Video trailer de la película

Enlaces de descarga

Rip de Bluray

Descargar Los Ilusionistas 2 (2016) REMUX 1080p Latino




Aportes de DPeliculasHDmega la pass es:dpeliculashdmega.org Aportes de CinemaniaHD la pass es:cinemaniahdd.com
Guardado en : Acción , Comedia , Remux , Suspenso

Películas relacionadas

  • Come Play (2020) REMUX 1080p Latino

    Come Play (2020) REMUX 1080p Latino

    2020
    Come Play (2020) REMUX 1080p Latino

    0.0 1h 36m 2020

    Descargar Come Play (2020) REMUX 1080p Latino. Un niño problemático y su familia se convierten en el...

    Director: Jacob Chase

    Género: Terror

    Actores: Winslow Fegley

  • Agentes Vanguard (2020) HD 1080p Latino

    Agentes Vanguard (2020) HD 1080p Latino

    2020
    Agentes Vanguard (2020) HD 1080p Latino

    0.0 1h 47m 2020

    Descargar Agentes Vanguard (2020) HD 1080p Latino. La compañía de seguridad encubierta Vanguard es...

    Director: Stanley Tong

    Género: Acción

    Actores: Zhu Zhengting

  • Agentes Vanguard (2020) PLACEBO Full HD 1080p Latino

    Agentes Vanguard (2020) PLACEBO Full HD 1080p Latino

    2020
    Agentes Vanguard (2020) PLACEBO Full HD 1080p Latino

    0.0 1h 47m 2020

    Descargar Agentes Vanguard (2020) PLACEBO Full HD 1080p Latino. La compañía de seguridad encubierta...

    Director: Stanley Tong

    Género: Acción

    Actores: Zhu Zhengting

  • Agentes Vanguard (2020) REMUX 1080p Latino

    Agentes Vanguard (2020) REMUX 1080p Latino

    2020
    Agentes Vanguard (2020) REMUX 1080p Latino

    5.0 1h 47m 2020

    Descargar Agentes Vanguard (2020) REMUX 1080p Latino. La compañía de seguridad encubierta Vanguard...

    Director: Stanley Tong

    Género: Acción

    Actores: Zhu Zhengting

  • Escuela de Miedo (2020) REMUX 1080p Latino

    Escuela de Miedo (2020) REMUX 1080p Latino

    2020
    Escuela de Miedo (2020) REMUX 1080p Latino

    0.0 1h 20m 2020

    Descargar Escuela de Miedo (2020) REMUX 1080p Latino. Un inteligente estudiante de secundaria de 15 años...

    Director: Leopoldo Aguilar

    Género: Animación

    Actores: Ruby Rose

Comentarios 1
  • ocpgaiden - 17 enero, 2021

    Gracias por las 2 peliculas de los ilusionistas