×

¿Problemas para descargar con Mozilla, EDGE? Deshabilita la opción "Abrir vinculos en una pestaña nueva" tal como lo muestra ésta imagen.

Now You See Me 2 (2016) REMUX 4K HDR Latino – CMHDD

317 vistas

Información de Now You See Me 2 (2016) REMUX 4K HDR Latino – CMHDD

Datos de la película

  • Calidad: 4K HDR
  • Audio: Español Latino AC3 5.1 BLURAY - Ingles DTS-HD Master 7.1 BLURAY
  • Subtitulos: Español Latino PGS
  • Resolución: 3840x2160p
  • Formato: MKV
  • Codec: H.264
  • Encoder: Dracarys
  • Mediainfo: Clic para Mostrar Datos Ver
  • Format                      : Matroska
    Format version              : Version 4
    File size                   : 55.5 GiB
    Duration                    : 2 h 9 min
    Overall bit rate mode       : Variable
    Overall bit rate            : 61.5 Mb/s
    Movie name                  : Now You See Me 2 (2016) REMUX 4K HDR Latino - CMHDD
    Encoded date                : UTC 2023-05-03 23:57:25
    Writing application         : mkvmerge v47.0.0 ('Black Flag') 64-bit
    Writing library             : libebml v1.3.10 + libmatroska v1.5.2

    Video
    ID                          : 1
    ID in the original source m : 4113 (0x1011)
    Format                      : HEVC
    Format/Info                 : High Efficiency Video Coding
    Format profile              : Main 10@L5.1@High
    HDR format                  : SMPTE ST 2086, HDR10 compatible
    Codec ID                    : V_MPEGH/ISO/HEVC
    Duration                    : 2 h 9 min
    Bit rate                    : 56.5 Mb/s
    Width                       : 3 840 pixels
    Height                      : 2 160 pixels
    Display aspect ratio        : 16:9
    Frame rate mode             : Constant
    Frame rate                  : 23.976 (24000/1001) FPS
    Color space                 : YUV
    Chroma subsampling          : 4:2:0 (Type 2)
    Bit depth                   : 10 bits
    Bits/(Pixel*Frame)          : 0.284
    Stream size                 : 51.0 GiB (92%)
    Writing library             : ATEME Titan KFE 3.7.3 (4.7.3.1003)
    Language                    : English
    Default                     : No
    Forced                      : No
    Color range                 : Limited
    Color primaries             : BT.2020
    Transfer characteristics    : PQ
    Matrix coefficients         : BT.2020 non-constant
    Mastering display color pri : Display P3
    Mastering display luminance : min: 0.0000 cd/m2, max: 1000 cd/m2
    Maximum Content Light Level : 1033 cd/m2
    Maximum Frame-Average Light : 356 cd/m2
    Original source medium      : Blu-ray

    Audio #1
    ID                          : 2
    Format                      : DTS XLL
    Format/Info                 : Digital Theater Systems
    Commercial name             : DTS-HD Master Audio
    Codec ID                    : A_DTS
    Duration                    : 2 h 9 min
    Bit rate mode               : Variable
    Bit rate                    : 3 719 kb/s
    Channel(s)                  : 8 channels
    Channel layout              : C L R LFE Lb Rb Lss Rss
    Sampling rate               : 48.0 kHz
    Frame rate                  : 93.750 FPS (512 SPF)
    Bit depth                   : 24 bits
    Compression mode            : Lossless
    Stream size                 : 3.36 GiB (6%)
    Title                       : DTS-HD MA 7.1
    Language                    : English
    Default                     : No
    Forced                      : No

    Audio #2
    ID                          : 3
    ID in the original source m : 4352 (0x1100)
    Format                      : AC-3
    Format/Info                 : Audio Coding 3
    Commercial name             : Dolby Digital
    Format settings             : Dolby Surround EX
    Codec ID                    : A_AC3
    Duration                    : 2 h 9 min
    Bit rate mode               : Constant
    Bit rate                    : 640 kb/s
    Channel(s)                  : 6 channels
    Channel layout              : L R C LFE Ls Rs
    Sampling rate               : 48.0 kHz
    Frame rate                  : 31.250 FPS (1536 SPF)
    Compression mode            : Lossy
    Stream size                 : 592 MiB (1%)
    Title                       : DD 5.1
    Language                    : English
    Service kind                : Complete Main
    Default                     : No
    Forced                      : No
    Original source medium      : Blu-ray

    Audio #3
    ID                          : 4
    ID in the original source m : 4353 (0x1101)
    Format                      : AC-3
    Format/Info                 : Audio Coding 3
    Commercial name             : Dolby Digital
    Codec ID                    : A_AC3
    Duration                    : 2 h 9 min
    Bit rate mode               : Constant
    Bit rate                    : 640 kb/s
    Channel(s)                  : 6 channels
    Channel layout              : L R C LFE Ls Rs
    Sampling rate               : 48.0 kHz
    Frame rate                  : 31.250 FPS (1536 SPF)
    Compression mode            : Lossy
    Stream size                 : 592 MiB (1%)
    Title                       : DD 5.1
    Language                    : Spanish
    Service kind                : Complete Main
    Default                     : Yes
    Forced                      : No
    Original source medium      : Blu-ray

    Text #1
    ID                          : 5
    ID in the original source m : 4770 (0x12A2)
    Format                      : PGS
    Muxing mode                 : zlib
    Codec ID                    : S_HDMV/PGS
    Codec ID/Info               : Picture based subtitle format used on BDs/HD-DVDs
    Duration                    : 2 h 0 min
    Bit rate                    : 43.3 kb/s
    Frame rate                  : 0.524 FPS
    Count of elements           : 3778
    Stream size                 : 37.2 MiB (0%)
    Language                    : Spanish
    Default                     : No
    Forced                      : No
    Original source medium      : Blu-ray

    Text #2
    ID                          : 6
    ID in the original source m : 4770 (0x12A2)
    Format                      : PGS
    Muxing mode                 : zlib
    Codec ID                    : S_HDMV/PGS
    Codec ID/Info               : Picture based subtitle format used on BDs/HD-DVDs
    Duration                    : 1 h 1 min
    Bit rate                    : 286 b/s
    Frame rate                  : 0.004 FPS
    Count of elements           : 16
    Stream size                 : 128 KiB (0%)
    Title                       : FORCED
    Language                    : Spanish
    Default                     : Yes
    Forced                      : No
    Original source medium      : Blu-ray

    Menu
    00:00:00.000                : en:Chapter 01
    00:07:04.924                : en:Chapter 02
    00:16:04.296                : en:Chapter 03
    00:25:29.194                : en:Chapter 04
    00:33:16.828                : en:Chapter 05
    00:39:57.645                : en:Chapter 06
    00:48:07.718                : en:Chapter 07
    00:53:34.669                : en:Chapter 08
    01:03:53.162                : en:Chapter 09
    01:14:00.477                : en:Chapter 10
    01:20:23.360                : en:Chapter 11
    01:26:37.692                : en:Chapter 12
    01:32:36.717                : en:Chapter 13
    01:38:46.837                : en:Chapter 14
    01:48:13.528                : en:Chapter 15
    01:54:04.754                : en:Chapter 16

  • Peso: 55.5 GiB

Sinopsis

Un año después de despistar al FBI y conseguir la admiración del público con sus espectáculos mentales, los cuatro jinetes vuelven a la luz pública, pero un nuevo enemigo se propone arruinar su golpe más espectacular y peligroso hasta la fecha… Secuela de «Ahora me ves» del 2013.

Ficha técnica

Video trailer de la película

Enlaces de descarga

Rip de Bluray

Descargar Now You See Me 2 (2016) REMUX 4K HDR Latino – CMHDD


Aportes de DPeliculasHDmega la pass es:dpeliculashdmega.org Aportes de CinemaniaHD la pass es:cinemaniahdd.com Aportes recientes:cinemaniahdd.net
Guardado en : Acción , Crimen , Misterio , Suspenso

Películas relacionadas

  • Familia Nacional (2023) WEB-DL 1080p Latino

    Familia Nacional (2023) WEB-DL 1080p Latino

    2023
    Familia Nacional (2023) WEB-DL 1080p Latino

    1h 43m 2023

    Descargar Familia Nacional (2023) WEB-DL 1080p Latino. Don Poli es el patriarca de una familia disfuncional...

    Director: Marcelo Tobar

    Género: Acción

    Actores: Tadeo Tovar

  • Strictly Confidential (2024) WEB-DL 1080p Latino

    Strictly Confidential (2024) WEB-DL 1080p Latino

    2024
    Strictly Confidential (2024) WEB-DL 1080p Latino

    1h 28m 2024

    Descargar Strictly Confidential (2024) WEB-DL 1080p Latino. Una joven atormentada se ve atraída por...

    Director: Damian Hurley

    Género: Misterio

    Actores: Thomas Downey

  • La Otra Cara de Dorian (2023) WEB-DL 1080p Latino

    La Otra Cara de Dorian (2023) WEB-DL 1080p Latino

    2023
    La Otra Cara de Dorian (2023) WEB-DL 1080p Latino

    1h 40m 2023

    Descargar La Otra Cara de Dorian (2023) WEB-DL 1080p Latino. Una versión moderna del cuento de Oscar...

    Director: Richard John Taylor

    Género: Drama

    Actores: Triana Terry

descargar Now You See Me 2 (2016) REMUX 4K HDR Latino – CMHDD 4K HDR 1080p gratis, Now You See Me 2 (2016) REMUX 4K HDR Latino – CMHDD 4K HDR mega 1 link, Now You See Me 2 (2016) REMUX 4K HDR Latino – CMHDD 4K HDR pelicula completa, descargar Now You See Me 2 (2016) REMUX 4K HDR Latino – CMHDD 4K HDR gratis en mega.

Now You See Me 2 (2016) REMUX 4K HDR Latino – CMHDD pelicula full hd, Now You See Me 2 (2016) REMUX 4K HDR Latino – CMHDD mega latino, Now You See Me 2 (2016) REMUX 4K HDR Latino – CMHDD 4k latino, Now You See Me 2 (2016) REMUX 4K HDR Latino – CMHDD pelicula completa, Now You See Me 2 (2016) REMUX 4K HDR Latino – CMHDD descargar gratis, descargar Now You See Me 2 (2016) REMUX 4K HDR Latino – CMHDD pelicula latino, Now You See Me 2 (2016) REMUX 4K HDR Latino – CMHDD 1 link mega, Now You See Me 2 (2016) REMUX 4K HDR Latino – CMHDD 1 link google drive, Now You See Me 2 (2016) REMUX 4K HDR Latino – CMHDD hd 1080p latino.
Comentarios 0