Los Ilusionistas 2 (2016) Full HD 1080p Latino

145 vistas
1 estrella2 estrellas3 estrellas4 estrellas5 estrellas (Ninguna valoración todavía)
Cargando...

Información de Los Ilusionistas 2 (2016) Full HD 1080p Latino

Datos de la película

  • Calidad: Full 1080p
  • Audio: Español Latino AC3 5.1 BLURAY - Ingles AC3 5.1 BLURAY
  • Subtitulos: Español Latino PGS - Ingles PGS
  • Resolución: 1920x1080p
  • Formato: MKV
  • Codec: H.264
  • Encoder: CinefiloCool
  • Mediainfo: Clic para Mostrar Datos Ver
  • Los Ilusionistas 2 (2016) Full HD 1080p Latino-CMHDD.mkv
    Format                      : Matroska
    Format version              : Version 4
    File size                   : 7.41 GiB
    Duration                    : 2 h 9 min
    Overall bit rate            : 8 214 kb/s
    Movie name                  : Now You See Me 2 (2016) CinemaniaHDD.Net
    Encoded date                : UTC 2021-01-09 23:35:27
    Writing application         : mkvmerge v51.0.0 ('I Wish') 64-bit
    Writing library             : libebml v1.4.0 + libmatroska v1.6.2
    Attachments                 : CINEMANIAHD.png

    Video
    ID                          : 1
    Format                      : AVC
    Format/Info                 : Advanced Video Codec
    Format profile              : High@L4.1
    Format settings             : CABAC / 4 Ref Frames
    Format settings, CABAC      : Yes
    Format settings, Reference  : 4 frames
    Codec ID                    : V_MPEG4/ISO/AVC
    Duration                    : 2 h 9 min
    Bit rate                    : 6 894 kb/s
    Width                       : 1 920 pixels
    Height                      : 1 080 pixels
    Display aspect ratio        : 16:9
    Frame rate mode             : Constant
    Frame rate                  : 23.976 (24000/1001) FPS
    Color space                 : YUV
    Chroma subsampling          : 4:2:0
    Bit depth                   : 8 bits
    Scan type                   : Progressive
    Bits/(Pixel*Frame)          : 0.139
    Stream size                 : 6.22 GiB (84%)
    Title                       : Full HD1080p [CinemaniaHDD]
    Writing library             : x264 core 157 r2935 545de2f
    Encoding settings           : cabac=1 / ref=4 / deblock=1:0:0 / analyse=0x3:0x133 / me=tesa / subme=11 / psy=1 / psy_rd=1.00:0.00 / mixed_ref=1 / me_range=24 / chroma_me=1 / trellis=2 / 8x8dct=1 / cqm=0 / deadzone=21,11 / fast_pskip=0 / chroma_qp_offset=-2 / threads=24 / lookahead_threads=6 / sliced_threads=0 / nr=0 / decimate=1 / interlaced=0 / bluray_compat=0 / constrained_intra=0 / bframes=16 / b_pyramid=2 / b_adapt=2 / b_bias=0 / direct=3 / weightb=1 / open_gop=0 / weightp=2 / keyint=240 / keyint_min=24 / scenecut=40 / intra_refresh=0 / rc_lookahead=60 / rc=crf / mbtree=1 / crf=20.0 / qcomp=0.60 / qpmin=0 / qpmax=69 / qpstep=4 / vbv_maxrate=62500 / vbv_bufsize=78125 / crf_max=0.0 / nal_hrd=none / filler=0 / ip_ratio=1.40 / aq=1:1.00
    Default                     : Yes
    Forced                      : Yes
    Color range                 : Limited
    Color primaries             : BT.709
    Transfer characteristics    : BT.709
    Matrix coefficients         : BT.709

    Audio #1
    ID                          : 2
    Format                      : AC-3
    Format/Info                 : Audio Coding 3
    Commercial name             : Dolby Digital
    Codec ID                    : A_AC3
    Duration                    : 2 h 9 min
    Bit rate mode               : Constant
    Bit rate                    : 640 kb/s
    Channel(s)                  : 6 channels
    Channel layout              : L R C LFE Ls Rs
    Sampling rate               : 48.0 kHz
    Frame rate                  : 31.250 FPS (1536 SPF)
    Compression mode            : Lossy
    Stream size                 : 592 MiB (8%)
    Title                       : Español Latino [CinemaniaHDD]
    Language                    : Spanish
    Service kind                : Complete Main
    Default                     : Yes
    Forced                      : No

    Audio #2
    ID                          : 3
    Format                      : AC-3
    Format/Info                 : Audio Coding 3
    Commercial name             : Dolby Digital
    Codec ID                    : A_AC3
    Duration                    : 2 h 9 min
    Bit rate mode               : Constant
    Bit rate                    : 640 kb/s
    Channel(s)                  : 6 channels
    Channel layout              : L R C LFE Ls Rs
    Sampling rate               : 48.0 kHz
    Frame rate                  : 31.250 FPS (1536 SPF)
    Compression mode            : Lossy
    Stream size                 : 592 MiB (8%)
    Title                       : Ingles AC3 [CinemaniaHDD]
    Language                    : English
    Service kind                : Complete Main
    Default                     : No
    Forced                      : No

    Text #1
    ID                          : 4
    Format                      : PGS
    Muxing mode                 : zlib
    Codec ID                    : S_HDMV/PGS
    Codec ID/Info               : Picture based subtitle format used on BDs/HD-DVDs
    Duration                    : 1 h 1 min
    Bit rate                    : 179 b/s
    Count of elements           : 10
    Stream size                 : 80.6 KiB (0%)
    Title                       : Forzados-PGS [CinemaniaHDD]
    Language                    : Spanish
    Default                     : Yes
    Forced                      : No

    Text #2
    ID                          : 5
    Format                      : PGS
    Muxing mode                 : zlib
    Codec ID                    : S_HDMV/PGS
    Codec ID/Info               : Picture based subtitle format used on BDs/HD-DVDs
    Duration                    : 2 h 0 min
    Bit rate                    : 46.4 kb/s
    Count of elements           : 3793
    Stream size                 : 39.9 MiB (1%)
    Title                       : Español-PGS [CinemaniaHDD]
    Language                    : Spanish
    Default                     : No
    Forced                      : No

    Text #3
    ID                          : 6
    Format                      : PGS
    Muxing mode                 : zlib
    Codec ID                    : S_HDMV/PGS
    Codec ID/Info               : Picture based subtitle format used on BDs/HD-DVDs
    Duration                    : 2 h 0 min
    Bit rate                    : 50.2 kb/s
    Count of elements           : 3845
    Stream size                 : 43.1 MiB (1%)
    Title                       : Ingles-PGS [CinemaniaHDD]
    Language                    : English
    Default                     : No
    Forced                      : No

    Text #4
    ID                          : 7
    Format                      : UTF-8
    Codec ID                    : S_TEXT/UTF8
    Codec ID/Info               : UTF-8 Plain Text
    Duration                    : 1 h 1 min
    Bit rate                    : 0 b/s
    Count of elements           : 6
    Stream size                 : 146 Bytes (0%)
    Title                       : Forzados-SRT [CinemaniaHDD]
    Language                    : Spanish
    Default                     : No
    Forced                      : No

    Text #5
    ID                          : 8
    Format                      : UTF-8
    Codec ID                    : S_TEXT/UTF8
    Codec ID/Info               : UTF-8 Plain Text
    Duration                    : 2 h 0 min
    Bit rate                    : 77 b/s
    Count of elements           : 1889
    Stream size                 : 68.3 KiB (0%)
    Title                       : Español-SRT [CinemaniaHDD]
    Language                    : Spanish
    Default                     : No
    Forced                      : No

    Menu
    00:00:00.000                : en:Chapter 1
    00:07:05.133                : en:Chapter 2
    00:16:03.838                : en:Chapter 3
    00:25:29.570                : en:Chapter 4
    00:33:16.828                : en:Chapter 5
    00:39:57.645                : en:Chapter 6
    00:48:07.718                : en:Chapter 7
    00:53:34.711                : en:Chapter 8
    01:03:53.246                : en:Chapter 9
    01:14:00.561                : en:Chapter 10
    01:20:23.569                : en:Chapter 11
    01:26:37.400                : en:Chapter 12
    01:32:37.051                : en:Chapter 13
    01:38:46.837                : en:Chapter 14
    01:48:13.529                : en:Chapter 15
    01:54:04.921                : en:Chapter 16

  • Peso: 7.41 GiB

Sinopsis

Descargar Los Ilusionistas 2 (2016) Full HD 1080p Latino. Un año después de despistar al FBI y conseguir la admiración del público con sus espectáculos mentales, los cuatro jinetes vuelven a la luz pública, pero un nuevo enemigo se propone arruinar su golpe más espectacular y peligroso hasta la fecha… Secuela de «Ahora me ves» del 2013.

Ficha técnica

Video trailer de la película

Enlaces de descarga

Rip de Bluray

Descargar Los Ilusionistas 2 (2016) Full HD 1080p Latino




Aportes de DPeliculasHDmega la pass es:dpeliculashdmega.org Aportes de CinemaniaHD la pass es:cinemaniahdd.com

Películas relacionadas

  • Ferry (2021) NF WEB-DL 1080p Latino

    Ferry (2021) NF WEB-DL 1080p Latino

    2021
    Ferry (2021) NF WEB-DL 1080p Latino

    5.0 1h 46m 2021

    Antes de levantar su imperio de drogas, Ferry Bouman vuelve a casa con una misión de venganza que pone...

    Director: Cecilia Verheyden

    Género: Acción

    Actores: Yannick van de Velde

  • I Am All Girls (2021) NF WEB-DL 1080p Latino

    I Am All Girls (2021) NF WEB-DL 1080p Latino

    2021
    I Am All Girls (2021) NF WEB-DL 1080p Latino

    5.0 1h 47m 2021

    Una detective implacable encuentra que tiene intereses en común con alguien que asesina sistemáticamente...

    Director: Donovan Marsh

    Género: Crimen

    Actores: Masasa Mbangeni

Los Ilusionistas 2 (2016) Full HD 1080p Latino pelicula full hd, Los Ilusionistas 2 (2016) Full HD 1080p Latino mega latino, Los Ilusionistas 2 (2016) Full HD 1080p Latino 4k latino, Los Ilusionistas 2 (2016) Full HD 1080p Latino pelicula completa, Los Ilusionistas 2 (2016) Full HD 1080p Latino descargar gratis, descargar Los Ilusionistas 2 (2016) Full HD 1080p Latino pelicula latino, Los Ilusionistas 2 (2016) Full HD 1080p Latino 1 link mega, Los Ilusionistas 2 (2016) Full HD 1080p Latino 1 link google drive, Los Ilusionistas 2 (2016) Full HD 1080p Latino hd 1080p latino.
Comentarios 1
  • Omar Enrique - 11 enero, 2021

    Muchas gracias por el aporte.