×

¿Problemas para descargar con Mozilla, EDGE? Deshabilita la opción "Abrir vinculos en una pestaña nueva" tal como lo muestra ésta imagen.

Noticias del gran mundo (2020) REMUX 1080p Latino

220 vistas

Información de Noticias del gran mundo (2020) REMUX 1080p Latino

Datos de la película

  • Calidad: Full 1080p
  • Audio: Se especifica abajo de la Sinopsis
  • Subtitulos: Español Latino SRT- FORZADOS SRT
  • Resolución: 1920x1080p
  • Formato: MKV
  • Codec: H.264
  • Encoder: Melkor
  • Mediainfo: Clic para Mostrar Datos Ver
  • Noticias Del Gran Mundo (2020) REMUX 1080p Latino.mkv
    Format                      : Matroska
    Format version              : Version 4
    File size                   : 31.3 GiB
    Duration                    : 1 h 58 min
    Overall bit rate mode       : Variable
    Overall bit rate            : 37.9 Mb/s
    Movie name                  : News Of The World (2020) CinemaniaHDD.Net
    Encoded date                : UTC 2021-03-15 23:49:33
    Writing application         : mkvmerge v51.0.0 ('I Wish') 64-bit
    Writing library             : libebml v1.4.0 + libmatroska v1.6.2
    Attachments                 : CINEMANIAHD.png

    Video
    ID                          : 1
    ID in the original source m : 4113 (0x1011)
    Format                      : AVC
    Format/Info                 : Advanced Video Codec
    Format profile              : High@L4.1
    Format settings             : CABAC / 4 Ref Frames
    Format settings, CABAC      : Yes
    Format settings, Reference  : 4 frames
    Codec ID                    : V_MPEG4/ISO/AVC
    Duration                    : 1 h 58 min
    Bit rate mode               : Variable
    Bit rate                    : 32.4 Mb/s
    Maximum bit rate            : 35.0 Mb/s
    Width                       : 1 920 pixels
    Height                      : 1 080 pixels
    Display aspect ratio        : 16:9
    Frame rate mode             : Constant
    Frame rate                  : 23.976 (24000/1001) FPS
    Color space                 : YUV
    Chroma subsampling          : 4:2:0
    Bit depth                   : 8 bits
    Scan type                   : Progressive
    Bits/(Pixel*Frame)          : 0.653
    Stream size                 : 26.8 GiB (86%)
    Title                       : REMUX HD1080p [CinemaniaHDD]
    Default                     : Yes
    Forced                      : No
    Original source medium      : Blu-ray

    Audio #1
    ID                          : 2
    Format                      : AC-3
    Format/Info                 : Audio Coding 3
    Commercial name             : Dolby Digital
    Codec ID                    : A_AC3
    Duration                    : 1 h 58 min
    Bit rate mode               : Constant
    Bit rate                    : 640 kb/s
    Channel(s)                  : 6 channels
    Channel layout              : L R C LFE Ls Rs
    Sampling rate               : 48.0 kHz
    Frame rate                  : 31.250 FPS (1536 SPF)
    Compression mode            : Lossy
    Stream size                 : 541 MiB (2%)
    Title                       : Español Latino [CinemaniaHDD]
    Language                    : Spanish
    Service kind                : Complete Main
    Default                     : Yes
    Forced                      : No

    Audio #2
    ID                          : 3
    ID in the original source m : 4352 (0x1100)
    Format                      : MLP FBA 16-ch
    Format/Info                 : Meridian Lossless Packing FBA with 16-channel presentation
    Commercial name             : Dolby TrueHD with Dolby Atmos
    Codec ID                    : A_TRUEHD
    Duration                    : 1 h 58 min
    Bit rate mode               : Variable
    Bit rate                    : 4 292 kb/s
    Maximum bit rate            : 8 112 kb/s
    Channel(s)                  : 8 channels
    Channel layout              : L R C LFE Ls Rs Lb Rb
    Sampling rate               : 48.0 kHz
    Frame rate                  : 1 200.000 FPS (40 SPF)
    Compression mode            : Lossless
    Stream size                 : 3.55 GiB (11%)
    Title                       : Ingles THD [CinemaniaHDD]
    Language                    : English
    Default                     : No
    Forced                      : No
    Original source medium      : Blu-ray
    Number of dynamic objects   : 11
    Bed channel count           : 1 channel
    Bed channel configuration   : LFE

    Audio #3
    ID                          : 4
    ID in the original source m : 4352 (0x1100)
    Format                      : AC-3
    Format/Info                 : Audio Coding 3
    Commercial name             : Dolby Digital
    Codec ID                    : A_AC3
    Duration                    : 1 h 58 min
    Bit rate mode               : Constant
    Bit rate                    : 448 kb/s
    Channel(s)                  : 6 channels
    Channel layout              : L R C LFE Ls Rs
    Sampling rate               : 48.0 kHz
    Frame rate                  : 31.250 FPS (1536 SPF)
    Compression mode            : Lossy
    Stream size                 : 379 MiB (1%)
    Title                       : Ingles AC3 [CinemaniaHDD]
    Language                    : English
    Service kind                : Complete Main
    Default                     : No
    Forced                      : No
    Original source medium      : Blu-ray

    Text #1
    ID                          : 5
    Format                      : UTF-8
    Codec ID                    : S_TEXT/UTF8
    Codec ID/Info               : UTF-8 Plain Text
    Duration                    : 1 h 56 min
    Bit rate                    : 1 b/s
    Count of elements           : 53
    Stream size                 : 1.12 KiB (0%)
    Title                       : Forzados-SRT [CinemaniaHDD]
    Language                    : Spanish
    Default                     : Yes
    Forced                      : No

    Text #2
    ID                          : 6
    Format                      : UTF-8
    Codec ID                    : S_TEXT/UTF8
    Codec ID/Info               : UTF-8 Plain Text
    Duration                    : 1 h 56 min
    Bit rate                    : 28 b/s
    Count of elements           : 923
    Stream size                 : 24.7 KiB (0%)
    Title                       : Español-SRT [CinemaniaHDD]
    Language                    : Spanish
    Default                     : No
    Forced                      : No

    Text #3
    ID                          : 7
    Format                      : UTF-8
    Codec ID                    : S_TEXT/UTF8
    Codec ID/Info               : UTF-8 Plain Text
    Duration                    : 1 h 50 min
    Bit rate                    : 31 b/s
    Count of elements           : 1010
    Stream size                 : 25.9 KiB (0%)
    Title                       : Ingles-SRT [CinemaniaHDD]
    Language                    : Spanish
    Default                     : No
    Forced                      : No

    Menu
    00:00:00.000                : en:Chapter 01
    00:03:43.765                : en:Chapter 02
    00:11:33.318                : en:Chapter 03
    00:15:29.762                : en:Chapter 04
    00:22:58.377                : en:Chapter 05
    00:30:33.707                : en:Chapter 06
    00:35:44.934                : en:Chapter 07
    00:42:12.989                : en:Chapter 08
    00:47:37.855                : en:Chapter 09
    00:55:02.841                : en:Chapter 10
    00:58:51.611                : en:Chapter 11
    01:03:49.784                : en:Chapter 12
    01:12:24.715                : en:Chapter 13
    01:18:05.931                : en:Chapter 14
    01:25:35.922                : en:Chapter 15
    01:31:39.327                : en:Chapter 16
    01:37:36.809                : en:Chapter 17
    01:42:54.210                : en:Chapter 18
    01:46:20.749                : en:Chapter 19
    01:53:34.891                : en:Chapter 20

  • Peso: 31.3 GiB

Sinopsis

Descargar Noticias del gran mundo (2020) REMUX 1080p Latino. Cinco años después del fin de la Guerra Civil estadounidense, el capitán Jefferson Kyle Kidd, veterano no de una, sino de tres guerras, va de ciudad en ciudad narrando noticias, hablando de presidentes y reinas, de luchas gloriosas, devastadoras catástrofes y apasionantes aventuras que tienen lugar en cualquier rincón del mundo. Un día, en las llanuras de Texas, el capitán conoce a Johanna, una niña de diez años que fue secuestrada seis años atrás por la tribu Kiowa, y que durante este tiempo fue educada como uno de ellos. Johanna, en contra de su voluntad, debe irse a vivir a casa de sus tíos, un lugar hostil y desconocido para ella. El capitán Kidd acepta entregar a la niña a sus tutores legales. En el viaje, ambos recorrerán cientos de kilómetros a través de una inhóspita naturaleza, y deberán enfrentarse a enormes dificultades, humanas y naturales, en búsqueda de un lugar al que puedan llamar “hogar”.

Español Latino AC3 5.1 Bluray – Ingles TrueHD 7.1 & AC3 5.1 Bluray

Ficha técnica

Video trailer de la película

Enlaces de descarga

Rip de Bluray

Descargar Noticias del gran mundo (2020) REMUX 1080p Latino




Aportes de DPeliculasHDmega la pass es:dpeliculashdmega.org Aportes de CinemaniaHD la pass es:cinemaniahdd.com
Guardado en : Action , Adventure , Drama , Remux , Western

Películas relacionadas

descargar Noticias del gran mundo (2020) REMUX 1080p Latino Full 1080p 1080p gratis, Noticias del gran mundo (2020) REMUX 1080p Latino Full 1080p mega 1 link, Noticias del gran mundo (2020) REMUX 1080p Latino Full 1080p pelicula completa, descargar Noticias del gran mundo (2020) REMUX 1080p Latino Full 1080p gratis en mega.

Noticias del gran mundo (2020) REMUX 1080p Latino pelicula full hd, Noticias del gran mundo (2020) REMUX 1080p Latino mega latino, Noticias del gran mundo (2020) REMUX 1080p Latino 4k latino, Noticias del gran mundo (2020) REMUX 1080p Latino pelicula completa, Noticias del gran mundo (2020) REMUX 1080p Latino descargar gratis, descargar Noticias del gran mundo (2020) REMUX 1080p Latino pelicula latino, Noticias del gran mundo (2020) REMUX 1080p Latino 1 link mega, Noticias del gran mundo (2020) REMUX 1080p Latino 1 link google drive, Noticias del gran mundo (2020) REMUX 1080p Latino hd 1080p latino.
Comentarios 0