×

¿Problemas para descargar con Mozilla, EDGE? Deshabilita la opción "Abrir vinculos en una pestaña nueva" tal como lo muestra ésta imagen.

Noticias del gran mundo (2020) HD 1080p Latino

330 vistas

Información de Noticias del gran mundo (2020) HD 1080p Latino

Datos de la película

  • Calidad: 1080p
  • Audio: Español Latino AC3 5.1 BLURAY - Ingles AC3 5.1 BLURAY
  • Subtitulos: Español Latino SRT- FORZADOS SRT
  • Resolución: 1920x804p
  • Formato: MKV
  • Codec: H.264
  • Encoder: Melkor
  • Mediainfo: Clic para Mostrar Datos Ver
  • Noticias Del Gran Mundo (2020) HD 1080p Latino.mkv
    Format                      : Matroska
    Format version              : Version 4
    File size                   : 3.72 GiB
    Duration                    : 1 h 58 min
    Overall bit rate            : 4 507 kb/s
    Movie name                  : News Of The World (2020) CinemaniaHDD.Net
    Encoded date                : UTC 2021-03-16 01:22:17
    Writing application         : mkvmerge v51.0.0 ('I Wish') 64-bit
    Writing library             : libebml v1.4.0 + libmatroska v1.6.2
    Attachments                 : CINEMANIAHD.png

    Video
    ID                          : 1
    Format                      : AVC
    Format/Info                 : Advanced Video Codec
    Format profile              : High@L4.1
    Format settings             : CABAC / 5 Ref Frames
    Format settings, CABAC      : Yes
    Format settings, Reference  : 5 frames
    Codec ID                    : V_MPEG4/ISO/AVC
    Duration                    : 1 h 58 min
    Bit rate                    : 3 417 kb/s
    Width                       : 1 920 pixels
    Height                      : 804 pixels
    Display aspect ratio        : 2.40:1
    Frame rate mode             : Constant
    Frame rate                  : 23.976 (24000/1001) FPS
    Color space                 : YUV
    Chroma subsampling          : 4:2:0
    Bit depth                   : 8 bits
    Scan type                   : Progressive
    Bits/(Pixel*Frame)          : 0.092
    Stream size                 : 2.82 GiB (76%)
    Title                       : HD1080p [CinemaniaHDD]
    Writing library             : x264 core 157 r2935 545de2f
    Encoding settings           : cabac=1 / ref=5 / deblock=1:-1:-1 / analyse=0x3:0x133 / me=umh / subme=9 / psy=1 / psy_rd=1.00:0.15 / mixed_ref=1 / me_range=16 / chroma_me=1 / trellis=2 / 8x8dct=1 / cqm=0 / deadzone=21,11 / fast_pskip=1 / chroma_qp_offset=-3 / threads=24 / lookahead_threads=2 / sliced_threads=0 / nr=0 / decimate=1 / interlaced=0 / bluray_compat=0 / constrained_intra=0 / bframes=3 / b_pyramid=2 / b_adapt=2 / b_bias=0 / direct=3 / weightb=1 / open_gop=0 / weightp=2 / keyint=240 / keyint_min=24 / scenecut=40 / intra_refresh=0 / rc_lookahead=60 / rc=crf / mbtree=1 / crf=21.0 / qcomp=0.60 / qpmin=0 / qpmax=69 / qpstep=4 / vbv_maxrate=62500 / vbv_bufsize=78125 / crf_max=0.0 / nal_hrd=none / filler=0 / ip_ratio=1.40 / aq=1:1.00
    Default                     : Yes
    Forced                      : Yes
    Color range                 : Limited
    Color primaries             : BT.709
    Transfer characteristics    : BT.709
    Matrix coefficients         : BT.709

    Audio #1
    ID                          : 2
    Format                      : AC-3
    Format/Info                 : Audio Coding 3
    Commercial name             : Dolby Digital
    Codec ID                    : A_AC3
    Duration                    : 1 h 58 min
    Bit rate mode               : Constant
    Bit rate                    : 640 kb/s
    Channel(s)                  : 6 channels
    Channel layout              : L R C LFE Ls Rs
    Sampling rate               : 48.0 kHz
    Frame rate                  : 31.250 FPS (1536 SPF)
    Compression mode            : Lossy
    Stream size                 : 541 MiB (14%)
    Title                       : Español Latino [CinemaniaHDD]
    Language                    : Spanish
    Service kind                : Complete Main
    Default                     : Yes
    Forced                      : Yes

    Audio #2
    ID                          : 3
    ID in the original source m : 4352 (0x1100)
    Format                      : AC-3
    Format/Info                 : Audio Coding 3
    Commercial name             : Dolby Digital
    Codec ID                    : A_AC3
    Duration                    : 1 h 58 min
    Bit rate mode               : Constant
    Bit rate                    : 448 kb/s
    Channel(s)                  : 6 channels
    Channel layout              : L R C LFE Ls Rs
    Sampling rate               : 48.0 kHz
    Frame rate                  : 31.250 FPS (1536 SPF)
    Compression mode            : Lossy
    Stream size                 : 379 MiB (10%)
    Title                       : Ingles AC3 [CinemaniaHDD]
    Language                    : English
    Service kind                : Complete Main
    Default                     : No
    Forced                      : No
    Original source medium      : Blu-ray

    Text #1
    ID                          : 4
    Format                      : UTF-8
    Codec ID                    : S_TEXT/UTF8
    Codec ID/Info               : UTF-8 Plain Text
    Duration                    : 1 h 56 min
    Bit rate                    : 1 b/s
    Count of elements           : 53
    Stream size                 : 1.12 KiB (0%)
    Title                       : Forzados-SRT [CinemaniaHDD]
    Language                    : Spanish
    Default                     : Yes
    Forced                      : Yes

    Text #2
    ID                          : 5
    Format                      : UTF-8
    Codec ID                    : S_TEXT/UTF8
    Codec ID/Info               : UTF-8 Plain Text
    Duration                    : 1 h 56 min
    Bit rate                    : 28 b/s
    Count of elements           : 923
    Stream size                 : 24.7 KiB (0%)
    Title                       : Español-SRT [CinemaniaHDD]
    Language                    : Spanish
    Default                     : No
    Forced                      : No

    Text #3
    ID                          : 6
    Format                      : UTF-8
    Codec ID                    : S_TEXT/UTF8
    Codec ID/Info               : UTF-8 Plain Text
    Duration                    : 1 h 50 min
    Bit rate                    : 31 b/s
    Count of elements           : 1010
    Stream size                 : 25.9 KiB (0%)
    Title                       : Ingles-SRT [CinemaniaHDD]
    Language                    : Spanish
    Default                     : No
    Forced                      : No

    Menu
    00:00:00.000                : en:Chapter 01
    00:03:43.765                : en:Chapter 02
    00:11:33.318                : en:Chapter 03
    00:15:29.762                : en:Chapter 04
    00:22:58.377                : en:Chapter 05
    00:30:33.707                : en:Chapter 06
    00:35:44.934                : en:Chapter 07
    00:42:12.989                : en:Chapter 08
    00:47:37.855                : en:Chapter 09
    00:55:02.841                : en:Chapter 10
    00:58:51.611                : en:Chapter 11
    01:03:49.784                : en:Chapter 12
    01:12:24.715                : en:Chapter 13
    01:18:05.931                : en:Chapter 14
    01:25:35.922                : en:Chapter 15
    01:31:39.327                : en:Chapter 16
    01:37:36.809                : en:Chapter 17
    01:42:54.210                : en:Chapter 18
    01:46:20.749                : en:Chapter 19
    01:53:34.891                : en:Chapter 20

  • Peso: 3.72 GiB

Sinopsis

Descargar Noticias del gran mundo (2020) HD 1080p Latino. Cinco años después del fin de la Guerra Civil estadounidense, el capitán Jefferson Kyle Kidd, veterano no de una, sino de tres guerras, va de ciudad en ciudad narrando noticias, hablando de presidentes y reinas, de luchas gloriosas, devastadoras catástrofes y apasionantes aventuras que tienen lugar en cualquier rincón del mundo. Un día, en las llanuras de Texas, el capitán conoce a Johanna, una niña de diez años que fue secuestrada seis años atrás por la tribu Kiowa, y que durante este tiempo fue educada como uno de ellos. Johanna, en contra de su voluntad, debe irse a vivir a casa de sus tíos, un lugar hostil y desconocido para ella. El capitán Kidd acepta entregar a la niña a sus tutores legales. En el viaje, ambos recorrerán cientos de kilómetros a través de una inhóspita naturaleza, y deberán enfrentarse a enormes dificultades, humanas y naturales, en búsqueda de un lugar al que puedan llamar “hogar”.

Ficha técnica

Video trailer de la película

Enlaces de descarga

Rip de Bluray

Descargar Noticias del gran mundo (2020) HD 1080p Latino




Aportes de DPeliculasHDmega la pass es:dpeliculashdmega.org Aportes de CinemaniaHD la pass es:cinemaniahdd.com
Guardado en : Action , Adventure , Drama , HD 1080p , Western

Películas relacionadas

  • Juego de espías (2001) 1080p Latino

    Juego de espías (2001) 1080p Latino

    2001
    Juego de espías (2001) 1080p Latino

    2h 6m 2001

    Descargar Juego de espías (2001) 1080p Latino. Corre el año 1991, y al veterano agente de la CIA Nathan...

    Director: Tony Scott

    Género: Acción

    Actores: Zsolt Zágoni

  • Hombre de familia (2000) REMUX 1080p Latino

    Hombre de familia (2000) REMUX 1080p Latino

    2000
    Hombre de familia (2000) REMUX 1080p Latino

    2h 1m 2000

    Descargar Hombre de familia (2000) REMUX 1080p Latino. Jack Campbell es un egocéntrico broker de Wall...

    Director: Robert Schroer

    Género: Comedia

    Actores: Wass Stevens

descargar Noticias del gran mundo (2020) HD 1080p Latino 1080p 1080p gratis, Noticias del gran mundo (2020) HD 1080p Latino 1080p mega 1 link, Noticias del gran mundo (2020) HD 1080p Latino 1080p pelicula completa, descargar Noticias del gran mundo (2020) HD 1080p Latino 1080p gratis en mega.

Noticias del gran mundo (2020) HD 1080p Latino pelicula full hd, Noticias del gran mundo (2020) HD 1080p Latino mega latino, Noticias del gran mundo (2020) HD 1080p Latino 4k latino, Noticias del gran mundo (2020) HD 1080p Latino pelicula completa, Noticias del gran mundo (2020) HD 1080p Latino descargar gratis, descargar Noticias del gran mundo (2020) HD 1080p Latino pelicula latino, Noticias del gran mundo (2020) HD 1080p Latino 1 link mega, Noticias del gran mundo (2020) HD 1080p Latino 1 link google drive, Noticias del gran mundo (2020) HD 1080p Latino hd 1080p latino.
Comentarios 0