×

¿Problemas para descargar con Mozilla, EDGE? Deshabilita la opción "Abrir vinculos en una pestaña nueva" tal como lo muestra ésta imagen.

No es otra tonta película americana (2001) Full HD 1080p Latino

627 vistas

Información de No es otra tonta película americana (2001) Full HD 1080p Latino

Datos de la película

  • Calidad: Full 1080p
  • Audio: Español Latino AC3 5.1 Netflix - Ingles DTS 5.1 BLURAY
  • Subtitulos: Español Latino SRT- FORZADOS SRT
  • Resolución: 1920x1080p
  • Formato: MKV
  • Codec: H.264
  • Encoder: CinefiloCool
  • Mediainfo: Clic para Mostrar Datos Ver
  • No Es Otra Tonta Pelicula Americana (2001) Full HD 1080p Latino-CMHDD.mkv
    Format                      : Matroska
    Format version              : Version 4
    File size                   : 10.5 GiB
    Duration                    : 1 h 29 min
    Overall bit rate            : 16.9 Mb/s
    Movie name                  : Not Another Teen Movie (2001) CinemaniaHDD.Net
    Encoded date                : UTC 2022-07-25 20:25:12
    Writing application         : mkvmerge v56.1.0 ('My Friend') 64-bit
    Writing library             : libebml v1.4.2 + libmatroska v1.6.4
    Attachments                 : CINEMANIAHD.png

    Video
    ID                          : 1
    Format                      : AVC
    Format/Info                 : Advanced Video Codec
    Format profile              : High@L4.1
    Format settings             : CABAC / 4 Ref Frames
    Format settings, CABAC      : Yes
    Format settings, Reference  : 4 frames
    Codec ID                    : V_MPEG4/ISO/AVC
    Duration                    : 1 h 29 min
    Bit rate                    : 14.7 Mb/s
    Width                       : 1 920 pixels
    Height                      : 1 080 pixels
    Display aspect ratio        : 16:9
    Frame rate mode             : Constant
    Frame rate                  : 23.976 (24000/1001) FPS
    Color space                 : YUV
    Chroma subsampling          : 4:2:0
    Bit depth                   : 8 bits
    Scan type                   : Progressive
    Bits/(Pixel*Frame)          : 0.296
    Stream size                 : 9.16 GiB (87%)
    Title                       : Full HD1080p [CinemaniaHDD]
    Writing library             : x264 core 163 r3059 b684ebe0
    Encoding settings           : cabac=1 / ref=4 / deblock=1:0:0 / analyse=0x3:0x133 / me=tesa / subme=11 / psy=1 / psy_rd=1.00:0.00 / mixed_ref=1 / me_range=24 / chroma_me=1 / trellis=2 / 8x8dct=1 / cqm=0 / deadzone=21,11 / fast_pskip=0 / chroma_qp_offset=-2 / threads=24 / lookahead_threads=6 / sliced_threads=0 / nr=0 / decimate=1 / interlaced=0 / bluray_compat=0 / constrained_intra=0 / bframes=16 / b_pyramid=2 / b_adapt=2 / b_bias=0 / direct=3 / weightb=1 / open_gop=0 / weightp=2 / keyint=240 / keyint_min=24 / scenecut=40 / intra_refresh=0 / rc_lookahead=60 / rc=crf / mbtree=1 / crf=20.0 / qcomp=0.60 / qpmin=0 / qpmax=69 / qpstep=4 / vbv_maxrate=62500 / vbv_bufsize=78125 / crf_max=0.0 / nal_hrd=none / filler=0 / ip_ratio=1.40 / aq=1:1.00
    Default                     : Yes
    Forced                      : Yes
    Color range                 : Limited
    Color primaries             : BT.709
    Transfer characteristics    : BT.709
    Matrix coefficients         : BT.709

    Audio #1
    ID                          : 2
    Format                      : AC-3
    Format/Info                 : Audio Coding 3
    Commercial name             : Dolby Digital
    Codec ID                    : A_AC3
    Duration                    : 1 h 29 min
    Bit rate mode               : Constant
    Bit rate                    : 640 kb/s
    Channel(s)                  : 6 channels
    Channel layout              : L R C LFE Ls Rs
    Sampling rate               : 48.0 kHz
    Frame rate                  : 31.250 FPS (1536 SPF)
    Compression mode            : Lossy
    Stream size                 : 407 MiB (4%)
    Title                       : Español Latino [CinemaniaHDD]
    Language                    : Spanish
    Service kind                : Complete Main
    Default                     : Yes
    Forced                      : Yes

    Audio #2
    ID                          : 3
    Format                      : DTS
    Format/Info                 : Digital Theater Systems
    Codec ID                    : A_DTS
    Duration                    : 1 h 29 min
    Bit rate mode               : Constant
    Bit rate                    : 1 509 kb/s
    Channel(s)                  : 6 channels
    Channel layout              : C L R Ls Rs LFE
    Sampling rate               : 48.0 kHz
    Frame rate                  : 93.750 FPS (512 SPF)
    Bit depth                   : 24 bits
    Compression mode            : Lossy
    Stream size                 : 961 MiB (9%)
    Title                       : Ingles [CinemaniaHDD]
    Language                    : English
    Default                     : No
    Forced                      : No

    Text #1
    ID                          : 4
    Format                      : UTF-8
    Codec ID                    : S_TEXT/UTF8
    Codec ID/Info               : UTF-8 Plain Text
    Duration                    : 1 h 15 min
    Bit rate                    : 1 b/s
    Count of elements           : 33
    Stream size                 : 927 Bytes (0%)
    Title                       : Forzados-SRT [CinemaniaHDD]
    Language                    : Spanish
    Default                     : Yes
    Forced                      : Yes

    Text #2
    ID                          : 5
    Format                      : UTF-8
    Codec ID                    : S_TEXT/UTF8
    Codec ID/Info               : UTF-8 Plain Text
    Duration                    : 1 h 28 min
    Bit rate                    : 57 b/s
    Count of elements           : 1040
    Stream size                 : 37.5 KiB (0%)
    Title                       : Español-SRT [CinemaniaHDD]
    Language                    : Spanish
    Default                     : No
    Forced                      : No

    Text #3
    ID                          : 6
    ID in the original source m : 4608 (0x1200)
    Format                      : PGS
    Muxing mode                 : zlib
    Codec ID                    : S_HDMV/PGS
    Codec ID/Info               : Picture based subtitle format used on BDs/HD-DVDs
    Duration                    : 1 h 28 min
    Bit rate                    : 29.7 kb/s
    Count of elements           : 2011
    Stream size                 : 18.8 MiB (0%)
    Title                       : Ingles [CinemaniaHDD]
    Language                    : English
    Default                     : No
    Forced                      : No
    Original source medium      : Blu-ray

    Menu
    00:00:00.000                : Chapter 01
    00:10:03.603                : Chapter 02
    00:20:03.202                : Chapter 03
    00:30:03.802                : Chapter 04
    00:40:04.402                : Chapter 05
    00:50:05.002                : Chapter 06
    01:00:05.602                : Chapter 07
    01:10:07.203                : Chapter 08
    01:20:07.803                : Chapter 09

  • Peso: 10.5 GiB

Sinopsis

Descargar No es otra tonta película americana (2001) Full HD 1080p Latino. En el instituto John Hughes los chicos son como cualquier adolescente en cualquier otra peli de adolescentes. El chico deportista y popular apuesta con Austin, el rubito guapo, a que es capaz de transformar a Janey, la fea del colegio, en la reina del baile de fin de curso. Pero dos maquiavélicas compañeras intentarán que Jake pierda la apuesta: su hermana Catherine y Priscilla, la jefa de las animadoras. El resto de la pandilla tampoco es muy distinta a la de cualquier otra película de adolescentes americana. Y claro; los alumnos del instituto viven un curso lleno de fiestas, diversión, alcohol y sexo.

Ficha técnica

Video trailer de la película

Enlaces de descarga

Rip de Bluray

Descargar No es otra tonta película americana (2001) Full HD 1080p Latino




Aportes de DPeliculasHDmega la pass es:dpeliculashdmega.org Aportes de CinemaniaHD la pass es:cinemaniahdd.com

Películas relacionadas

  • Darlings (2022) NF WEB-DL 1080p Latino

    Darlings (2022) NF WEB-DL 1080p Latino

    2022
    Darlings (2022) NF WEB-DL 1080p Latino

    2h 14m 2022

    Descargar Darlings (2022) NF WEB-DL 1080p Latino. Badru espera que su colérico marido cambie si deja...

    Director: Jasmeet K Reen

    Género: Comedia

    Actores: Vijay Varma

  • Temporada de bodas (2022) NF WEB-DL 1080p Latino

    Temporada de bodas (2022) NF WEB-DL 1080p Latino

    2022
    Temporada de bodas (2022) NF WEB-DL 1080p Latino

    1h 39m 2022

    Descargar Temporada de bodas (2022) NF WEB-DL 1080p Latino. En un intento por mantener alejados a sus...

    Director: Tom Dey

    Género: Comedia

    Actores: Suraj Sharma

  • Buba (2022) NF WEB-DL 1080p Latino

    Buba (2022) NF WEB-DL 1080p Latino

    2022
    Buba (2022) NF WEB-DL 1080p Latino

    1h 34m 2022

    Descargar Buba (2022) NF WEB-DL 1080p Latino. Cuando un estafador de un pequeño pueblo se une a la mafia...

    Director: Arne Feldhusen

    Género: Comedia

    Actores: Soma Pysall

  • Luck (2022) WEB-DL 1080p Latino

    Luck (2022) WEB-DL 1080p Latino

    2022
    Luck (2022) WEB-DL 1080p Latino

    1h 45m 2022

    Sam Greenfield es la persona con menos suerte del mundo. Cuando de repente se encuentra en la desconocida...

    Director: Peggy Holmes

    Género: Animación

    Actores: Whoopi Goldberg

No es otra tonta película americana (2001) Full HD 1080p Latino pelicula full hd, No es otra tonta película americana (2001) Full HD 1080p Latino mega latino, No es otra tonta película americana (2001) Full HD 1080p Latino 4k latino, No es otra tonta película americana (2001) Full HD 1080p Latino pelicula completa, No es otra tonta película americana (2001) Full HD 1080p Latino descargar gratis, descargar No es otra tonta película americana (2001) Full HD 1080p Latino pelicula latino, No es otra tonta película americana (2001) Full HD 1080p Latino 1 link mega, No es otra tonta película americana (2001) Full HD 1080p Latino 1 link google drive, No es otra tonta película americana (2001) Full HD 1080p Latino hd 1080p latino.
Comentarios 1
  • ocpgaiden - 27 julio, 2022

    Excelente pelicula