NOS4A2 (2020) Segunda Temporada AMZN WEB-DL 1080p Latino

42 vistas
1 estrella2 estrellas3 estrellas4 estrellas5 estrellas (3 votos, promedio: 5,00 de 5)
Cargando...

Información de NOS4A2 (2020) Segunda Temporada AMZN WEB-DL 1080p Latino

Datos de la película

  • Calidad: WEBDL
  • Audio: Español Latino E-AC3 5.1 AMAZON - Ingles E-AC3 5.1 AMAZON
  • Subtitulos: Español Latino SRT- FORZADOS SRT
  • Resolución: 1920x1080
  • Formato: MKV
  • Codec: H.264
  • Encoder: cinemaniahdd
  • Mediainfo: Clic para Mostrar Datos Ver
  • NOS4A2 T02E01 AMZN WEB-DL 1080p Latino [CNMNHDD].mkv
    Format                      : Matroska
    Format version              : Version 4
    File size                   : 3.53 GiB
    Duration                    : 45 min 41 s
    Overall bit rate            : 11.1 Mb/s
    Movie name                  : NOS4A2 T02E01 - CinemaniaHDD.Net
    Encoded date                : UTC 2021-04-21 23:26:25
    Writing application         : mkvmerge v51.0.0 ('I Wish') 64-bit
    Writing library             : libebml v1.4.0 + libmatroska v1.6.2

    Video
    ID                          : 1
    Format                      : AVC
    Format/Info                 : Advanced Video Codec
    Format profile              : High@L4
    Format settings             : CABAC / 4 Ref Frames
    Format settings, CABAC      : Yes
    Format settings, Reference  : 4 frames
    Codec ID                    : V_MPEG4/ISO/AVC
    Duration                    : 45 min 41 s
    Bit rate mode               : Constant
    Bit rate                    : 9 141 kb/s
    Nominal bit rate            : 10 000 kb/s
    Width                       : 1 920 pixels
    Height                      : 1 080 pixels
    Display aspect ratio        : 16:9
    Frame rate mode             : Constant
    Frame rate                  : 24.000 FPS
    Color space                 : YUV
    Chroma subsampling          : 4:2:0
    Bit depth                   : 8 bits
    Scan type                   : Progressive
    Bits/(Pixel*Frame)          : 0.184
    Stream size                 : 2.92 GiB (83%)
    Title                       : CinemaniaHDD
    Default                     : Yes
    Forced                      : No
    Color range                 : Limited
    Color primaries             : BT.709
    Transfer characteristics    : BT.709
    Matrix coefficients         : BT.709

    Audio #1
    ID                          : 2
    Format                      : AC-3
    Format/Info                 : Audio Coding 3
    Commercial name             : Dolby Digital
    Codec ID                    : A_AC3
    Duration                    : 45 min 41 s
    Bit rate mode               : Constant
    Bit rate                    : 640 kb/s
    Channel(s)                  : 6 channels
    Channel layout              : L R C LFE Ls Rs
    Sampling rate               : 48.0 kHz
    Frame rate                  : 31.250 FPS (1536 SPF)
    Compression mode            : Lossy
    Stream size                 : 209 MiB (6%)
    Title                       : Español latino - AC3 [CinemaniaHDD]
    Language                    : Spanish
    Service kind                : Complete Main
    Default                     : Yes
    Forced                      : No

    Audio #2
    ID                          : 3
    Format                      : E-AC-3
    Format/Info                 : Enhanced AC-3
    Commercial name             : Dolby Digital Plus
    Codec ID                    : A_EAC3
    Duration                    : 45 min 41 s
    Bit rate mode               : Constant
    Bit rate                    : 640 kb/s
    Channel(s)                  : 6 channels
    Channel layout              : L R C LFE Ls Rs
    Sampling rate               : 48.0 kHz
    Frame rate                  : 31.250 FPS (1536 SPF)
    Compression mode            : Lossy
    Stream size                 : 209 MiB (6%)
    Title                       : Español latino - E-AC3 [CinemaniaHDD]
    Language                    : Spanish
    Service kind                : Complete Main
    Default                     : No
    Forced                      : No

    Audio #3
    ID                          : 4
    Format                      : E-AC-3
    Format/Info                 : Enhanced AC-3
    Commercial name             : Dolby Digital Plus
    Codec ID                    : A_EAC3
    Duration                    : 45 min 41 s
    Bit rate mode               : Constant
    Bit rate                    : 640 kb/s
    Channel(s)                  : 6 channels
    Channel layout              : L R C LFE Ls Rs
    Sampling rate               : 48.0 kHz
    Frame rate                  : 31.250 FPS (1536 SPF)
    Compression mode            : Lossy
    Stream size                 : 209 MiB (6%)
    Title                       : Inglés - E-AC3 [CinemaniaHDD]
    Language                    : English
    Service kind                : Complete Main
    Default                     : No
    Forced                      : No

    Text #1
    ID                          : 5
    Format                      : UTF-8
    Codec ID                    : S_TEXT/UTF8
    Codec ID/Info               : UTF-8 Plain Text
    Duration                    : 4 s 922 ms
    Bit rate                    : 162 b/s
    Count of elements           : 2
    Stream size                 : 100 Bytes (0%)
    Title                       : Forzados [CinemaniaHDD]
    Language                    : Spanish
    Default                     : Yes
    Forced                      : Yes

    Text #2
    ID                          : 6
    Format                      : UTF-8
    Codec ID                    : S_TEXT/UTF8
    Codec ID/Info               : UTF-8 Plain Text
    Duration                    : 44 min 29 s
    Bit rate                    : 40 b/s
    Count of elements           : 413
    Stream size                 : 13.1 KiB (0%)
    Title                       : Español latino [CinemaniaHDD]
    Language                    : Spanish
    Default                     : No
    Forced                      : No

    Text #3
    ID                          : 7
    Format                      : UTF-8
    Codec ID                    : S_TEXT/UTF8
    Codec ID/Info               : UTF-8 Plain Text
    Duration                    : 44 min 28 s
    Bit rate                    : 38 b/s
    Count of elements           : 419
    Stream size                 : 12.4 KiB (0%)
    Title                       : Inglés [CC] [CinemaniaHDD]
    Language                    : English
    Default                     : No
    Forced                      : No

    Menu
    00:00:00.000                : en:Scene 1
    00:03:58.000                : en:Title Sequence
    00:04:33.000                : en:Scene 3
    00:13:10.000                : en:Scene 4
    00:22:54.000                : en:Scene 5
    00:32:57.000                : en:Scene 6
    00:37:35.000                : en:Scene 7
    00:38:01.000                : en:Scene 8
    00:45:10.000                : en:End Credits

     

  • Peso: 3.53 GiB Aprox ---- 31.2 GiB in 10 Chapters.

Sinopsis

Ocho años despues, Vic McQueen está más decidida que nunca a destruir a Charlie Manx. Charlie, quien ya enfrentó su mortalidad, aparece desesperado por venganza. Esta vez, pone la mira fija en la persona que más le importa a Vic, su hijo Wayne.

Ficha técnica

Video trailer de la película

Enlaces de descarga

Rip de Bluray

Descargar NOS4A2 (2020) Segunda Temporada AMZN WEB-DL 1080p Latino




Aportes de DPeliculasHDmega la pass es:dpeliculashdmega.org Aportes de CinemaniaHD la pass es:cinemaniahdd.com
Guardado en : Drama , Sci-Fi & Fantasy , Series

Películas relacionadas

NOS4A2 (2020) Segunda Temporada AMZN WEB-DL 1080p Latino pelicula full hd, NOS4A2 (2020) Segunda Temporada AMZN WEB-DL 1080p Latino mega latino, NOS4A2 (2020) Segunda Temporada AMZN WEB-DL 1080p Latino 4k latino, NOS4A2 (2020) Segunda Temporada AMZN WEB-DL 1080p Latino pelicula completa, NOS4A2 (2020) Segunda Temporada AMZN WEB-DL 1080p Latino descargar gratis, descargar NOS4A2 (2020) Segunda Temporada AMZN WEB-DL 1080p Latino pelicula latino, NOS4A2 (2020) Segunda Temporada AMZN WEB-DL 1080p Latino 1 link mega, NOS4A2 (2020) Segunda Temporada AMZN WEB-DL 1080p Latino 1 link google drive, NOS4A2 (2020) Segunda Temporada AMZN WEB-DL 1080p Latino hd 1080p latino.
Comentarios 0