NOS4A2 (2019) Primera Temporada AMZN WEB-DL 1080p Latino

37 vistas
1 estrella2 estrellas3 estrellas4 estrellas5 estrellas (3 votos, promedio: 4,67 de 5)
Cargando...

Información de NOS4A2 (2019) Primera Temporada AMZN WEB-DL 1080p Latino

Datos de la película

  • Calidad: WEBDL
  • Audio: Español Latino E-AC3 5.1 AMAZON - Ingles E-AC3 5.1 AMAZON
  • Subtitulos: Español Latino SRT- FORZADOS SRT
  • Resolución: 1920x1080
  • Formato: MKV
  • Codec: H.264
  • Encoder: cinemaniahdd
  • Mediainfo: Clic para Mostrar Datos Ver
  • NOS4A2 T01E01 AMZN WEB-DL 1080p Latino [CNMNHDD].mkv
    Format                      : Matroska
    Format version              : Version 4
    File size                   : 4.21 GiB
    Duration                    : 55 min 26 s
    Overall bit rate            : 10.9 Mb/s
    Movie name                  : NOS4A2 T01E01 - CinemaniaHDD.Net
    Encoded date                : UTC 2021-04-21 23:05:05
    Writing application         : mkvmerge v51.0.0 ('I Wish') 64-bit
    Writing library             : libebml v1.4.0 + libmatroska v1.6.2

    Video
    ID                          : 1
    Format                      : AVC
    Format/Info                 : Advanced Video Codec
    Format profile              : High@L4
    Format settings             : CABAC / 4 Ref Frames
    Format settings, CABAC      : Yes
    Format settings, Reference  : 4 frames
    Codec ID                    : V_MPEG4/ISO/AVC
    Duration                    : 55 min 26 s
    Bit rate mode               : Constant
    Bit rate                    : 8 939 kb/s
    Nominal bit rate            : 10 000 kb/s
    Width                       : 1 920 pixels
    Height                      : 1 080 pixels
    Display aspect ratio        : 16:9
    Frame rate mode             : Constant
    Frame rate                  : 23.976 (24000/1001) FPS
    Color space                 : YUV
    Chroma subsampling          : 4:2:0
    Bit depth                   : 8 bits
    Scan type                   : Progressive
    Bits/(Pixel*Frame)          : 0.180
    Stream size                 : 3.46 GiB (82%)
    Title                       : CinemaniaHDD
    Default                     : Yes
    Forced                      : No
    Color range                 : Limited
    Color primaries             : BT.709
    Transfer characteristics    : BT.709
    Matrix coefficients         : BT.709

    Audio #1
    ID                          : 2
    Format                      : AC-3
    Format/Info                 : Audio Coding 3
    Commercial name             : Dolby Digital
    Codec ID                    : A_AC3
    Duration                    : 55 min 26 s
    Bit rate mode               : Constant
    Bit rate                    : 640 kb/s
    Channel(s)                  : 6 channels
    Channel layout              : L R C LFE Ls Rs
    Sampling rate               : 48.0 kHz
    Frame rate                  : 31.250 FPS (1536 SPF)
    Compression mode            : Lossy
    Stream size                 : 254 MiB (6%)
    Title                       : Español latino - AC3 [CinemaniaHDD]
    Language                    : Spanish
    Service kind                : Complete Main
    Default                     : Yes
    Forced                      : No

    Audio #2
    ID                          : 3
    Format                      : E-AC-3
    Format/Info                 : Enhanced AC-3
    Commercial name             : Dolby Digital Plus
    Codec ID                    : A_EAC3
    Duration                    : 55 min 26 s
    Bit rate mode               : Constant
    Bit rate                    : 640 kb/s
    Channel(s)                  : 6 channels
    Channel layout              : L R C LFE Ls Rs
    Sampling rate               : 48.0 kHz
    Frame rate                  : 31.250 FPS (1536 SPF)
    Compression mode            : Lossy
    Stream size                 : 254 MiB (6%)
    Title                       : Español latino - E-AC3 [CinemaniaHDD]
    Language                    : Spanish
    Service kind                : Complete Main
    Default                     : No
    Forced                      : No

    Audio #3
    ID                          : 4
    Format                      : E-AC-3
    Format/Info                 : Enhanced AC-3
    Commercial name             : Dolby Digital Plus
    Codec ID                    : A_EAC3
    Duration                    : 55 min 26 s
    Bit rate mode               : Constant
    Bit rate                    : 640 kb/s
    Channel(s)                  : 6 channels
    Channel layout              : L R C LFE Ls Rs
    Sampling rate               : 48.0 kHz
    Frame rate                  : 31.250 FPS (1536 SPF)
    Compression mode            : Lossy
    Stream size                 : 254 MiB (6%)
    Title                       : Inglés - E-AC3 [CinemaniaHDD]
    Language                    : English
    Service kind                : Complete Main
    Default                     : No
    Forced                      : No

    Text #1
    ID                          : 5
    Format                      : UTF-8
    Codec ID                    : S_TEXT/UTF8
    Codec ID/Info               : UTF-8 Plain Text
    Duration                    : 53 min 43 s
    Bit rate                    : 1 b/s
    Count of elements           : 22
    Stream size                 : 425 Bytes (0%)
    Title                       : Forzados [CinemaniaHDD]
    Language                    : Spanish
    Default                     : Yes
    Forced                      : Yes

    Text #2
    ID                          : 6
    Format                      : UTF-8
    Codec ID                    : S_TEXT/UTF8
    Codec ID/Info               : UTF-8 Plain Text
    Duration                    : 54 min 24 s
    Bit rate                    : 45 b/s
    Count of elements           : 686
    Stream size                 : 18.3 KiB (0%)
    Title                       : Español latino [CinemaniaHDD]
    Language                    : Spanish
    Default                     : No
    Forced                      : No

    Text #3
    ID                          : 7
    Format                      : UTF-8
    Codec ID                    : S_TEXT/UTF8
    Codec ID/Info               : UTF-8 Plain Text
    Duration                    : 53 min 39 s
    Bit rate                    : 44 b/s
    Count of elements           : 560
    Stream size                 : 17.6 KiB (0%)
    Title                       : Inglés [CC] [CinemaniaHDD]
    Language                    : English
    Default                     : No
    Forced                      : No

    Menu
    00:00:00.000                : en:Scene 1
    00:06:02.000                : en:Opening Credits
    00:06:35.000                : en:Vic helps her mother clean
    00:11:05.000                : en:Maggie finds a new case
    00:16:03.000                : en:Vic visits Haley
    00:21:40.000                : en:The Wraith
    00:25:40.000                : en:Aunt Carrie's
    00:32:32.000                : en:Vic hangs out with new friends
    00:38:39.000                : en:Charlie plans on visiting
    00:47:13.000                : en:The Brat
    00:53:09.000                : en:It's always snowing in Christmasland
    00:54:54.000                : en:Scene 12

     

  • Peso: 4.21 GiB Aprox ---- 35.2 GiB in 10 Chapters.

Sinopsis

Basada en la novela de Joe Hill del mismo nombre, NOS4A2 retrata a Vic Mcqueen, una joven talentosa que descubre la habilidad sobrenatural de encontrar cosas perdidas. Esta habilidad la coloca en ruta de colisión con el diabólico e inmortal Charlie Manx.

Ficha técnica

Video trailer de la película

Enlaces de descarga

Rip de Bluray

Descargar NOS4A2 (2019) Primera Temporada AMZN WEB-DL 1080p Latino




Aportes de DPeliculasHDmega la pass es:dpeliculashdmega.org Aportes de CinemaniaHD la pass es:cinemaniahdd.com
Guardado en : Drama , Sci-Fi & Fantasy , Series

Películas relacionadas

NOS4A2 (2019) Primera Temporada AMZN WEB-DL 1080p Latino pelicula full hd, NOS4A2 (2019) Primera Temporada AMZN WEB-DL 1080p Latino mega latino, NOS4A2 (2019) Primera Temporada AMZN WEB-DL 1080p Latino 4k latino, NOS4A2 (2019) Primera Temporada AMZN WEB-DL 1080p Latino pelicula completa, NOS4A2 (2019) Primera Temporada AMZN WEB-DL 1080p Latino descargar gratis, descargar NOS4A2 (2019) Primera Temporada AMZN WEB-DL 1080p Latino pelicula latino, NOS4A2 (2019) Primera Temporada AMZN WEB-DL 1080p Latino 1 link mega, NOS4A2 (2019) Primera Temporada AMZN WEB-DL 1080p Latino 1 link google drive, NOS4A2 (2019) Primera Temporada AMZN WEB-DL 1080p Latino hd 1080p latino.
Comentarios 0