×

¿Problemas para descargar con Mozilla, EDGE? Deshabilita la opción "Abrir vinculos en una pestaña nueva" tal como lo muestra ésta imagen.

North to Alaska (1960) REMUX 1080p Latino – CMHDD

202 vistas

Información de North to Alaska (1960) REMUX 1080p Latino – CMHDD

Datos de la película

  • Calidad: Full 1080p
  • Audio: Se especifica abajo de la Sinopsis
  • Subtitulos: Español Latino PGS
  • Resolución: 1920x1080p
  • Formato: MKV
  • Codec: H.264
  • Encoder: Dracarys
  • Mediainfo: Clic para Mostrar Datos Ver
  • Format                      : Matroska
    Format version              : Version 4
    File size                   : 28.6 GiB
    Duration                    : 2 h 2 min
    Overall bit rate mode       : Variable
    Overall bit rate            : 33.5 Mb/s
    Movie name                  : North to Alaska (1960) REMUX 1080p Latino - CMHDD
    Encoded date                : UTC 2021-07-07 04:44:20
    Writing application         : mkvmerge v56.1.0 ('My Friend') 64-bit
    Writing library             : libebml v1.4.2 + libmatroska v1.6.4
    Cover                       : Yes
    Attachments                 : cover.jpg

    Video
    ID                          : 1
    ID in the original source m : 4113 (0x1011)
    Format                      : AVC
    Format/Info                 : Advanced Video Codec
    Format profile              : High@L4.1
    Format settings             : CABAC / 4 Ref Frames
    Format settings, CABAC      : Yes
    Format settings, Reference  : 4 frames
    Codec ID                    : V_MPEG4/ISO/AVC
    Duration                    : 2 h 2 min
    Bit rate mode               : Variable
    Bit rate                    : 30.9 Mb/s
    Maximum bit rate            : 32.0 Mb/s
    Width                       : 1 920 pixels
    Height                      : 1 080 pixels
    Display aspect ratio        : 16:9
    Frame rate mode             : Constant
    Frame rate                  : 23.976 (24000/1001) FPS
    Color space                 : YUV
    Chroma subsampling          : 4:2:0
    Bit depth                   : 8 bits
    Scan type                   : Progressive
    Bits/(Pixel*Frame)          : 0.621
    Stream size                 : 26.3 GiB (92%)
    Default                     : Yes
    Forced                      : No
    Original source medium      : Blu-ray

    Audio #1
    ID                          : 2
    ID in the original source m : 4352 (0x1100)
    Format                      : DTS XLL
    Format/Info                 : Digital Theater Systems
    Commercial name             : DTS-HD Master Audio
    Codec ID                    : A_DTS
    Duration                    : 2 h 2 min
    Bit rate mode               : Variable
    Bit rate                    : 2 440 kb/s
    Channel(s)                  : 4 channels
    Channel layout              : C L R Cb
    Sampling rate               : 48.0 kHz
    Frame rate                  : 93.750 FPS (512 SPF)
    Bit depth                   : 24 bits
    Compression mode            : Lossless
    Stream size                 : 2.08 GiB (7%)
    Language                    : English
    Default                     : No
    Forced                      : No
    Original source medium      : Blu-ray

    Audio #2
    ID                          : 3
    ID in the original source m : 4353 (0x1101)
    Format                      : AC-3
    Format/Info                 : Audio Coding 3
    Commercial name             : Dolby Digital
    Codec ID                    : A_AC3
    Duration                    : 2 h 2 min
    Bit rate mode               : Constant
    Bit rate                    : 192 kb/s
    Channel(s)                  : 1 channel
    Channel layout              : C
    Sampling rate               : 48.0 kHz
    Frame rate                  : 31.250 FPS (1536 SPF)
    Compression mode            : Lossy
    Stream size                 : 168 MiB (1%)
    Language                    : Spanish
    Service kind                : Complete Main
    Default                     : Yes
    Forced                      : No
    Original source medium      : Blu-ray

    Text
    ID                          : 4
    ID in the original source m : 4610 (0x1202)
    Format                      : PGS
    Muxing mode                 : zlib
    Codec ID                    : S_HDMV/PGS
    Codec ID/Info               : Picture based subtitle format used on BDs/HD-DVDs
    Duration                    : 2 h 1 min
    Bit rate                    : 39.6 kb/s
    Count of elements           : 2776
    Stream size                 : 34.3 MiB (0%)
    Language                    : Spanish
    Default                     : No
    Forced                      : No
    Original source medium      : Blu-ray

    Menu
    00:00:00.000                : Chapter 01
    00:01:49.109                : Chapter 02
    00:03:46.976                : Chapter 03
    00:07:54.807                : Chapter 04
    00:11:42.993                : Chapter 05
    00:14:41.213                : Chapter 06
    00:15:47.571                : Chapter 07
    00:18:40.369                : Chapter 08
    00:26:04.813                : Chapter 09
    00:30:14.020                : Chapter 10
    00:32:38.164                : Chapter 11
    00:34:59.263                : Chapter 12
    00:38:00.695                : Chapter 13
    00:41:46.754                : Chapter 14
    00:45:03.951                : Chapter 15
    00:47:48.699                : Chapter 16
    00:52:28.770                : Chapter 17
    00:55:50.388                : Chapter 18
    01:00:47.727                : Chapter 19
    01:05:15.745                : Chapter 20
    01:07:38.596                : Chapter 21
    01:13:29.363                : Chapter 22
    01:17:08.081                : Chapter 23
    01:19:15.959                : Chapter 24
    01:22:24.731                : Chapter 25
    01:27:41.631                : Chapter 26
    01:30:08.820                : Chapter 27
    01:33:18.009                : Chapter 28
    01:39:44.937                : Chapter 29
    01:42:34.648                : Chapter 30
    01:44:27.427                : Chapter 31
    01:46:30.258                : Chapter 32
    01:49:42.242                : Chapter 33
    01:54:13.847                : Chapter 34
    01:55:37.013                : Chapter 35
    01:59:54.353                : Chapter 36

  • Peso: 28.6 GiB

Sinopsis

Año 1900. George Pratt (John Wayne) y Sam McCord (Stewart Granger) son dos mineros, dos buscadores de oro, que han entablado una gran amistad en Nome, una ciudad de Alaska. Después de haber encontrado oro, George le pide a Sam que vaya a Seattle y le traiga a su novia para casarse con ella. Sam parte en su busca, pero cuando llega, comprueba que la novia de su amigo ya se ha casado. Así que decide regresar con Ángel (Capucine), una bella francesa a la que conoce en un saloon.

 

Latino: AC3 1.0  –  Ingles: DTS-HD Master Audio 4.0

Ficha técnica

Video trailer de la película

Enlaces de descarga

Rip de Bluray

Descargar North to Alaska (1960) REMUX 1080p Latino – CMHDD


Aportes de DPeliculasHDmega la pass es:dpeliculashdmega.org Aportes de CinemaniaHD la pass es:cinemaniahdd.com
Guardado en : Comedia , Romance , Western

Películas relacionadas

  • Shotgun Wedding (2022) AMZN WEB-DL 1080p Latino

    Shotgun Wedding (2022) AMZN WEB-DL 1080p Latino

    2022
    Shotgun Wedding (2022) AMZN WEB-DL 1080p Latino

    1h 41m 2022

    Darcy y Tom reúnen a sus familias para la boda de destino definitiva, pero cuando toman como rehenes...

    Director: Jason Moore

    Género: Acción

    Actores: Steve Coulter

  • M3GAN (2023) AMZN WEB-DL 4K UHD HDR Latino

    M3GAN (2023) AMZN WEB-DL 4K UHD HDR Latino

    2022
    M3GAN (2023) AMZN WEB-DL 4K UHD HDR Latino

    1h 42m 2022

    Descargar M3GAN (2023) AMZN WEB-DL 4K UHD HDR Latino. Cuando Gemma se convierte en la cuidadora de su...

    Director: Stephen W. Moore

    Género: 4K HDR

    Actores: Violet McGraw

  • M3GAN (2022) MA WEB-DL 1080p Latino

    M3GAN (2022) MA WEB-DL 1080p Latino

    2022
    M3GAN (2022) MA WEB-DL 1080p Latino

    1h 42m 2022

    Descargar M3GAN (2022) MA WEB-DL 1080p Latino. Cuando Gemma se convierte en la cuidadora de su sobrina...

    Director: Stephen W. Moore

    Género: Ciencia ficción

    Actores: Violet McGraw

  • Noche sin paz (2022) PLACEBO Full HD 1080p Latino

    Noche sin paz (2022) PLACEBO Full HD 1080p Latino

    2022
    Noche sin paz (2022) PLACEBO Full HD 1080p Latino

    1h 41m 2022

    Descargar Noche sin paz (2022) PLACEBO Full HD 1080p Latino. Cuando un equipo de mercenarios irrumpe...

    Director: Tyshana Hobson

    Género: Acción

    Actores: Yoon Cha-Lee

  • Noche sin paz (2022) HD 1080p Latino

    Noche sin paz (2022) HD 1080p Latino

    2022
    Noche sin paz (2022) HD 1080p Latino

    1h 41m 2022

    Descargar Noche sin paz (2022) HD 1080p Latino. Cuando un equipo de mercenarios irrumpe en Nochebuena...

    Director: Tyshana Hobson

    Género: Acción

    Actores: Yoon Cha-Lee

descargar North to Alaska (1960) REMUX 1080p Latino – CMHDD Full 1080p 1080p gratis, North to Alaska (1960) REMUX 1080p Latino – CMHDD Full 1080p mega 1 link, North to Alaska (1960) REMUX 1080p Latino – CMHDD Full 1080p pelicula completa, descargar North to Alaska (1960) REMUX 1080p Latino – CMHDD Full 1080p gratis en mega.

North to Alaska (1960) REMUX 1080p Latino – CMHDD pelicula full hd, North to Alaska (1960) REMUX 1080p Latino – CMHDD mega latino, North to Alaska (1960) REMUX 1080p Latino – CMHDD 4k latino, North to Alaska (1960) REMUX 1080p Latino – CMHDD pelicula completa, North to Alaska (1960) REMUX 1080p Latino – CMHDD descargar gratis, descargar North to Alaska (1960) REMUX 1080p Latino – CMHDD pelicula latino, North to Alaska (1960) REMUX 1080p Latino – CMHDD 1 link mega, North to Alaska (1960) REMUX 1080p Latino – CMHDD 1 link google drive, North to Alaska (1960) REMUX 1080p Latino – CMHDD hd 1080p latino.