×

¿Problemas para descargar con Mozilla, EDGE? Deshabilita la opción "Abrir vinculos en una pestaña nueva" tal como lo muestra ésta imagen.

¡Nop! (2022) WEB-DL 4K UHD HDR Latino

189 vistas

Información de ¡Nop! (2022) WEB-DL 4K UHD HDR Latino

Datos de la película

  • Calidad: WEBDL
  • Audio: Español Latino AC3 5.1 WEB-DL - Ingles AC3 5.1 WEB-DL
  • Subtitulos: Español Latino SRT- FORZADOS SRT
  • Resolución: 3840x1744p
  • Formato: MKV
  • Codec: HEVC
  • Encoder: Melkor
  • Mediainfo: Clic para Mostrar Datos Ver
  • Nope (2022) WEB UHD HDR Latino.mkv
    Format                      : Matroska
    Format version              : Version 4
    File size                   : 14.6 GiB
    Duration                    : 2 h 10 min
    Overall bit rate            : 16.0 Mb/s
    Movie name                  : Nope (2022) CinemaniaHDD.Net
    Encoded date                : UTC 2022-08-26 04:40:20
    Writing application         : mkvmerge v56.1.0 ('My Friend') 64-bit
    Writing library             : libebml v1.4.2 + libmatroska v1.6.4
    Attachments                 : CINEMANIAHD.png

    Video
    ID                          : 1
    Format                      : HEVC
    Format/Info                 : High Efficiency Video Coding
    Format profile              : Main 10@L5@Main
    HDR format                  : SMPTE ST 2094 App 4, Version 1, HDR10+ Profile B compatible
    Codec ID                    : V_MPEGH/ISO/HEVC
    Duration                    : 2 h 10 min
    Bit rate                    : 14.9 Mb/s
    Width                       : 3 840 pixels
    Height                      : 1 744 pixels
    Display aspect ratio        : 2.2:1
    Frame rate mode             : Constant
    Frame rate                  : 23.976 (24000/1001) FPS
    Color space                 : YUV
    Chroma subsampling          : 4:2:0
    Bit depth                   : 10 bits
    Bits/(Pixel*Frame)          : 0.093
    Stream size                 : 13.6 GiB (93%)
    Title                       : Web 2160p HDR [CinemaniaHDD]
    Language                    : English
    Default                     : Yes
    Forced                      : No
    Color range                 : Limited
    Color primaries             : BT.2020
    Transfer characteristics    : PQ
    Matrix coefficients         : BT.2020 non-constant
    Mastering display color pri : Display P3
    Mastering display luminance : min: 0.0050 cd/m2, max: 1000 cd/m2
    Maximum Content Light Level : 231 cd/m2
    Maximum Frame-Average Light : 189 cd/m2

    Audio #1
    ID                          : 2
    Format                      : AC-3
    Format/Info                 : Audio Coding 3
    Commercial name             : Dolby Digital
    Codec ID                    : A_AC3
    Duration                    : 2 h 10 min
    Bit rate mode               : Constant
    Bit rate                    : 448 kb/s
    Channel(s)                  : 6 channels
    Channel layout              : L R C LFE Ls Rs
    Sampling rate               : 48.0 kHz
    Frame rate                  : 31.250 FPS (1536 SPF)
    Compression mode            : Lossy
    Stream size                 : 418 MiB (3%)
    Title                       : Español Latino [CinemaniaHDD]
    Language                    : Spanish
    Service kind                : Complete Main
    Default                     : Yes
    Forced                      : Yes

    Audio #2
    ID                          : 3
    Format                      : E-AC-3
    Format/Info                 : Enhanced AC-3
    Commercial name             : Dolby Digital Plus
    Codec ID                    : A_EAC3
    Duration                    : 2 h 10 min
    Bit rate mode               : Constant
    Bit rate                    : 640 kb/s
    Channel(s)                  : 6 channels
    Channel layout              : L R C LFE Ls Rs
    Sampling rate               : 48.0 kHz
    Frame rate                  : 31.250 FPS (1536 SPF)
    Compression mode            : Lossy
    Stream size                 : 597 MiB (4%)
    Title                       : Ingles [CinemaniaHDD]
    Language                    : English
    Service kind                : Complete Main
    Default                     : No
    Forced                      : No

    Text #1
    ID                          : 4
    Format                      : UTF-8
    Codec ID                    : S_TEXT/UTF8
    Codec ID/Info               : UTF-8 Plain Text
    Duration                    : 2 h 2 min
    Bit rate                    : 0 b/s
    Count of elements           : 29
    Stream size                 : 794 Bytes (0%)
    Title                       : Forzados-SRT [CinemaniaHDD]
    Language                    : Spanish
    Default                     : Yes
    Forced                      : Yes

    Text #2
    ID                          : 5
    Format                      : UTF-8
    Codec ID                    : S_TEXT/UTF8
    Codec ID/Info               : UTF-8 Plain Text
    Duration                    : 2 h 10 min
    Bit rate                    : 41 b/s
    Count of elements           : 1388
    Stream size                 : 39.1 KiB (0%)
    Title                       : Español-SRT [CinemaniaHDD]
    Language                    : Spanish
    Default                     : No
    Forced                      : No

    Text #3
    ID                          : 6
    Format                      : UTF-8
    Codec ID                    : S_TEXT/UTF8
    Codec ID/Info               : UTF-8 Plain Text
    Duration                    : 2 h 10 min
    Bit rate                    : 60 b/s
    Count of elements           : 2188
    Stream size                 : 58.0 KiB (0%)
    Title                       : Ingles-SRT [CinemaniaHDD]
    Language                    : English
    Default                     : No
    Forced                      : No

    Menu
    00:00:00.000                : Chapter 1
    00:08:10.000                : Chapter 2
    00:16:51.000                : Chapter 3
    00:25:32.000                : Chapter 4
    00:33:42.000                : Chapter 5
    00:40:01.000                : Chapter 6
    00:48:41.000                : Chapter 7
    00:57:38.000                : Chapter 8
    01:04:25.000                : Chapter 9
    01:12:37.000                : Chapter 10
    01:20:25.000                : Chapter 11
    01:29:20.000                : Chapter 12
    01:36:03.000                : Chapter 13
    01:45:07.000                : Chapter 14
    01:53:34.000                : Chapter 15
    02:01:52.000                : Chapter 16

  • Peso: 14.6 GiB

Sinopsis

Descargar ¡Nop! (2022) WEB-DL 4K UHD HDR Latino. Dos residentes de un remoto pueblo en el interior de California realizan un descubrimiento tan insólito como escalofriante…

Ficha técnica

Video trailer de la película

Enlaces de descarga

Rip de Bluray

Descargar ¡Nop! (2022) WEB-DL 4K UHD HDR Latino




Aportes de DPeliculasHDmega la pass es:dpeliculashdmega.org Aportes de CinemaniaHD la pass es:cinemaniahdd.com

Películas relacionadas

descargar ¡Nop! (2022) WEB-DL 4K UHD HDR Latino WEBDL 1080p gratis, ¡Nop! (2022) WEB-DL 4K UHD HDR Latino WEBDL mega 1 link, ¡Nop! (2022) WEB-DL 4K UHD HDR Latino WEBDL pelicula completa, descargar ¡Nop! (2022) WEB-DL 4K UHD HDR Latino WEBDL gratis en mega.

¡Nop! (2022) WEB-DL 4K UHD HDR Latino pelicula full hd, ¡Nop! (2022) WEB-DL 4K UHD HDR Latino mega latino, ¡Nop! (2022) WEB-DL 4K UHD HDR Latino 4k latino, ¡Nop! (2022) WEB-DL 4K UHD HDR Latino pelicula completa, ¡Nop! (2022) WEB-DL 4K UHD HDR Latino descargar gratis, descargar ¡Nop! (2022) WEB-DL 4K UHD HDR Latino pelicula latino, ¡Nop! (2022) WEB-DL 4K UHD HDR Latino 1 link mega, ¡Nop! (2022) WEB-DL 4K UHD HDR Latino 1 link google drive, ¡Nop! (2022) WEB-DL 4K UHD HDR Latino hd 1080p latino.
Comentarios 0