×

¿Problemas para descargar con Mozilla, EDGE? Deshabilita la opción "Abrir vinculos en una pestaña nueva" tal como lo muestra ésta imagen.

Non-Stop: Sin Escalas (2014) OPEN MATTE REMUX 1080p Latino

207 vistas

Información de Non-Stop: Sin Escalas (2014) OPEN MATTE REMUX 1080p Latino

Datos de la película

  • Calidad: Full 1080p
  • Audio: Se especifica abajo de la Sinopsis
  • Subtitulos: Español Latino PGS - Ingles PGS
  • Resolución: 1920x1080p
  • Formato: MKV
  • Codec: H.264
  • Encoder: CinefiloCool
  • Mediainfo: Clic para Mostrar Datos Ver
  • Sin Escalas (2014) OPEN MATTE REMUX 1080p Latino-CMHDD.mkv
    Format                      : Matroska
    Format version              : Version 4
    File size                   : 22.9 GiB
    Duration                    : 1 h 46 min
    Overall bit rate mode       : Variable
    Overall bit rate            : 30.9 Mb/s
    Movie name                  : Non-Stop (2014) CinemaniaHDD.Net
    Encoded date                : UTC 2021-08-18 06:31:16
    Writing application         : mkvmerge v56.1.0 ('My Friend') 64-bit
    Writing library             : libebml v1.4.2 + libmatroska v1.6.4
    Attachments                 : CINEMANIAHD.png

    Video
    ID                          : 1
    ID in the original source m : 4113 (0x1011)
    Format                      : AVC
    Format/Info                 : Advanced Video Codec
    Format profile              : High@L4.1
    Format settings             : CABAC / 4 Ref Frames
    Format settings, CABAC      : Yes
    Format settings, Reference  : 4 frames
    Codec ID                    : V_MPEG4/ISO/AVC
    Duration                    : 1 h 46 min
    Bit rate mode               : Variable
    Bit rate                    : 24.9 Mb/s
    Maximum bit rate            : 35.0 Mb/s
    Width                       : 1 920 pixels
    Height                      : 1 080 pixels
    Display aspect ratio        : 16:9
    Frame rate mode             : Constant
    Frame rate                  : 24.000 FPS
    Standard                    : NTSC
    Color space                 : YUV
    Chroma subsampling          : 4:2:0
    Bit depth                   : 8 bits
    Scan type                   : Progressive
    Bits/(Pixel*Frame)          : 0.501
    Stream size                 : 18.5 GiB (81%)
    Title                       : REMUX OM HD1080p [CinemaniaHDD]
    Default                     : Yes
    Forced                      : Yes
    Color range                 : Limited
    Color primaries             : BT.709
    Transfer characteristics    : BT.709
    Matrix coefficients         : BT.709
    Original source medium      : Blu-ray

    Audio #1
    ID                          : 2
    Format                      : AC-3
    Format/Info                 : Audio Coding 3
    Commercial name             : Dolby Digital
    Codec ID                    : A_AC3
    Duration                    : 1 h 46 min
    Bit rate mode               : Constant
    Bit rate                    : 640 kb/s
    Channel(s)                  : 6 channels
    Channel layout              : L R C LFE Ls Rs
    Sampling rate               : 48.0 kHz
    Frame rate                  : 31.250 FPS (1536 SPF)
    Compression mode            : Lossy
    Stream size                 : 486 MiB (2%)
    Title                       : Español Latino L.A. SC  [CinemaniaHDD]
    Language                    : Spanish
    Service kind                : Complete Main
    Default                     : Yes
    Forced                      : Yes

    Audio #2
    ID                          : 3
    Format                      : AC-3
    Format/Info                 : Audio Coding 3
    Commercial name             : Dolby Digital
    Codec ID                    : A_AC3
    Duration                    : 1 h 46 min
    Bit rate mode               : Constant
    Bit rate                    : 640 kb/s
    Channel(s)                  : 6 channels
    Channel layout              : L R C LFE Ls Rs
    Sampling rate               : 48.0 kHz
    Frame rate                  : 31.250 FPS (1536 SPF)
    Compression mode            : Lossy
    Stream size                 : 486 MiB (2%)
    Title                       : Español Latino MX UNI [CinemaniaHDD]
    Language                    : Spanish
    Service kind                : Complete Main
    Default                     : No
    Forced                      : No

    Audio #3
    ID                          : 4
    ID in the original source m : 4352 (0x1100)
    Format                      : PCM
    Format settings             : Little / Signed
    Codec ID                    : A_PCM/INT/LIT
    Duration                    : 1 h 46 min
    Bit rate mode               : Constant
    Bit rate                    : 4 608 kb/s
    Channel(s)                  : 6 channels
    Sampling rate               : 48.0 kHz
    Frame rate                  : 200.000 FPS (240 SPF)
    Bit depth                   : 16 bits
    Stream size                 : 3.41 GiB (15%)
    Title                       : Ingles [CinemaniaHDD]
    Language                    : English
    Default                     : No
    Forced                      : No
    Original source medium      : Blu-ray

    Text #1
    ID                          : 5
    ID in the original source m : 4609 (0x1201)
    Format                      : PGS
    Muxing mode                 : zlib
    Codec ID                    : S_HDMV/PGS
    Codec ID/Info               : Picture based subtitle format used on BDs/HD-DVDs
    Duration                    : 1 h 40 min
    Bit rate                    : 30.7 kb/s
    Count of elements           : 2760
    Stream size                 : 22.0 MiB (0%)
    Title                       : Forzados-PGS [CinemaniaHDD]
    Language                    : Spanish
    Default                     : No
    Forced                      : No
    Original source medium      : Blu-ray

    Text #2
    ID                          : 6
    Format                      : PGS
    Muxing mode                 : zlib
    Codec ID                    : S_HDMV/PGS
    Codec ID/Info               : Picture based subtitle format used on BDs/HD-DVDs
    Duration                    : 1 h 39 min
    Bit rate                    : 34.9 kb/s
    Count of elements           : 2734
    Stream size                 : 24.7 MiB (0%)
    Title                       : Español-PGS [CinemaniaHDD]
    Language                    : Spanish
    Default                     : No
    Forced                      : No

    Text #3
    ID                          : 7
    ID in the original source m : 4608 (0x1200)
    Format                      : PGS
    Muxing mode                 : zlib
    Codec ID                    : S_HDMV/PGS
    Codec ID/Info               : Picture based subtitle format used on BDs/HD-DVDs
    Duration                    : 1 h 38 min
    Bit rate                    : 39.4 kb/s
    Count of elements           : 2920
    Stream size                 : 27.8 MiB (0%)
    Title                       : Ingles-PGS [CinemaniaHDD]
    Language                    : English
    Default                     : No
    Forced                      : No
    Original source medium      : Blu-ray

    Text #4
    ID                          : 8
    Format                      : UTF-8
    Codec ID                    : S_TEXT/UTF8
    Codec ID/Info               : UTF-8 Plain Text
    Duration                    : 1 h 36 min
    Bit rate                    : 0 b/s
    Count of elements           : 12
    Stream size                 : 253 Bytes (0%)
    Title                       : Forzados-SRT [CinemaniaHDD]
    Language                    : Spanish
    Default                     : Yes
    Forced                      : Yes

    Text #5
    ID                          : 9
    Format                      : UTF-8
    Codec ID                    : S_TEXT/UTF8
    Codec ID/Info               : UTF-8 Plain Text
    Duration                    : 1 h 38 min
    Bit rate                    : 63 b/s
    Count of elements           : 1455
    Stream size                 : 45.9 KiB (0%)
    Title                       : Español-SRT [CinemaniaHDD]
    Language                    : Spanish
    Default                     : No
    Forced                      : No

    Menu
    00:00:00.000                : Chapter 01
    00:05:39.458                : Chapter 02
    00:14:34.291                : Chapter 03
    00:27:09.333                : Chapter 04
    00:39:17.208                : Chapter 05
    00:53:03.958                : Chapter 06
    01:07:37.958                : Chapter 07
    01:14:11.500                : Chapter 08
    01:25:15.458                : Chapter 09
    01:31:34.041                : Chapter 10
    01:34:31.041                : Chapter 11
    01:39:47.833                : Chapter 12

  • Peso: 22.9 GiB

Sinopsis

Descargar Non-Stop: Sin Escalas (2014) OPEN MATTE REMUX 1080p Latino. Bill Marks (Liam Neeson), un veterano agente del servicio aéreo de los Marshalls, se siente bastante quemado tanto con el mundo como con su profesión: no entiende su labor como un deber para salvaguardar vidas, sino como un rutinario trabajo de oficina a bordo de un avión. Sin embargo, un día, en un viaje trasatlántico de Nueva York a Londres recibe una serie de misteriosos mensajes de texto, en los que se le pide que inste al gobierno a hacer una transferencia de 150 millones de dólares a una cuenta secreta, pues, en caso contrario, un pasajero moriría cada 20 minutos. El juego del gato y el ratón se desarrollado a 40.000 pies de altura y con la vida de 200 pasajeros pendiente de un hilo.

Audio Español Latino AC3 5.1 Doblaje StudioCanal + AC3 5.1 doblaje Universal – Ingles PCM 5.1 Bluray

Nota:
Proximamente Para Usuarios Free, Disponible Solo Para VIP!! 🙂

Ficha técnica

Video trailer de la película

Enlaces de descarga

Rip de Bluray

Descargar Non-Stop: Sin Escalas (2014) OPEN MATTE REMUX 1080p Latino




Aportes de DPeliculasHDmega la pass es:dpeliculashdmega.org Aportes de CinemaniaHD la pass es:cinemaniahdd.com
Guardado en : Acción , Misterio , OPEN MATTE , Remux , Suspenso

Películas relacionadas

  • Borrego: Sal Del Camino (2022) HD 1080p Latino

    Borrego: Sal Del Camino (2022) HD 1080p Latino

    2022
    Borrego: Sal Del Camino (2022) HD 1080p Latino

    1h 42m 2022

    Descargar Borrego: Sal Del Camino (2022) HD 1080p Latino. Una joven botánica se traslada a un pequeño...

    Director: Jesse Harris

    Género: Crimen

    Actores: Olivia Trujillo

  • Borrego: Sal Del Camino (2022) REMUX 1080p Latino

    Borrego: Sal Del Camino (2022) REMUX 1080p Latino

    2022
    Borrego: Sal Del Camino (2022) REMUX 1080p Latino

    1h 42m 2022

    Descargar Borrego: Sal Del Camino (2022) REMUX 1080p Latino. Una joven botánica se traslada a un pequeño...

    Director: Jesse Harris

    Género: Crimen

    Actores: Olivia Trujillo

  • Tren Bala (2022) WEB-DL 4K UHD HDR Latino

    Tren Bala (2022) WEB-DL 4K UHD HDR Latino

    2022
    Tren Bala (2022) WEB-DL 4K UHD HDR Latino

    2h 7m 2022

    Descargar Tren Bala (2022) WEB-DL 4K UHD HDR Latino. El desafortunado asesino "Catarina" está decidido...

    Director: Paul Barry

    Género: 4K HDR

    Actores: Zooey Miyoshi

  • Tren Bala (2022) AMZN WEB-DL 1080p Latino

    Tren Bala (2022) AMZN WEB-DL 1080p Latino

    2022
    Tren Bala (2022) AMZN WEB-DL 1080p Latino

    2h 7m 2022

    Descargar Tren Bala (2022) AMZN WEB-DL 1080p Latino. Cinco asesinos a sueldo se encuentran a bordo de...

    Director: Paul Barry

    Género: Acción

    Actores: Zooey Miyoshi

descargar Non-Stop: Sin Escalas (2014) OPEN MATTE REMUX 1080p Latino Full 1080p 1080p gratis, Non-Stop: Sin Escalas (2014) OPEN MATTE REMUX 1080p Latino Full 1080p mega 1 link, Non-Stop: Sin Escalas (2014) OPEN MATTE REMUX 1080p Latino Full 1080p pelicula completa, descargar Non-Stop: Sin Escalas (2014) OPEN MATTE REMUX 1080p Latino Full 1080p gratis en mega.

Non-Stop: Sin Escalas (2014) OPEN MATTE REMUX 1080p Latino pelicula full hd, Non-Stop: Sin Escalas (2014) OPEN MATTE REMUX 1080p Latino mega latino, Non-Stop: Sin Escalas (2014) OPEN MATTE REMUX 1080p Latino 4k latino, Non-Stop: Sin Escalas (2014) OPEN MATTE REMUX 1080p Latino pelicula completa, Non-Stop: Sin Escalas (2014) OPEN MATTE REMUX 1080p Latino descargar gratis, descargar Non-Stop: Sin Escalas (2014) OPEN MATTE REMUX 1080p Latino pelicula latino, Non-Stop: Sin Escalas (2014) OPEN MATTE REMUX 1080p Latino 1 link mega, Non-Stop: Sin Escalas (2014) OPEN MATTE REMUX 1080p Latino 1 link google drive, Non-Stop: Sin Escalas (2014) OPEN MATTE REMUX 1080p Latino hd 1080p latino.
Comentarios 0