Non-Stop: Sin Escalas (2014) OPEN MATTE Full HD 1080p Latino

2.009 vistas
1 estrella2 estrellas3 estrellas4 estrellas5 estrellas (1 votos, promedio: 5,00 de 5)
Cargando...

Información de Non-Stop: Sin Escalas (2014) OPEN MATTE Full HD 1080p Latino

Datos de la película

  • Calidad: Full 1080p
  • Audio: Español Latino DTS 5.1 BLURAY - Ingles DTS 5.1 BLURAY
  • Subtitulos: Español Latino PGS
  • Resolución: 1920X1080p
  • Formato: MKV
  • Codec: H.264
  • Encoder: Dracarys
  • Mediainfo: Clic para Mostrar Datos Ver
  • Sin Escalas (2014) OM Full HD 1080p Latino-CMHDD.mkv
    Format                      : Matroska
    Format version              : Version 4
    File size                   : 10.8 GiB
    Duration                    : 1 h 46 min
    Overall bit rate            : 14.6 Mb/s
    Movie name                  : Non-Stop (2014) CinemaniaHDD.Net
    Encoded date                : UTC 2021-08-18 19:38:27
    Writing application         : mkvmerge v56.1.0 ('My Friend') 64-bit
    Writing library             : libebml v1.4.2 + libmatroska v1.6.4

    Video
    ID                          : 1
    Format                      : AVC
    Format/Info                 : Advanced Video Codec
    Format profile              : High@L4.1
    Format settings             : CABAC / 4 Ref Frames
    Format settings, CABAC      : Yes
    Format settings, Reference  : 4 frames
    Codec ID                    : V_MPEG4/ISO/AVC
    Duration                    : 1 h 46 min
    Bit rate                    : 12.3 Mb/s
    Width                       : 1 920 pixels
    Height                      : 1 080 pixels
    Display aspect ratio        : 16:9
    Frame rate mode             : Constant
    Frame rate                  : 23.976 (24000/1001) FPS
    Original frame rate         : 24.000 FPS
    Color space                 : YUV
    Chroma subsampling          : 4:2:0
    Bit depth                   : 8 bits
    Scan type                   : Progressive
    Bits/(Pixel*Frame)          : 0.247
    Stream size                 : 9.12 GiB (84%)
    Title                       : Full HD1080p [CinemaniaHDD]
    Writing library             : x264 core 148 r2708 86b7198
    Encoding settings           : cabac=1 / ref=4 / deblock=1:0:0 / analyse=0x3:0x133 / me=esa / subme=10 / psy=1 / psy_rd=1.00:0.00 / mixed_ref=1 / me_range=24 / chroma_me=1 / trellis=2 / 8x8dct=1 / cqm=0 / deadzone=21,11 / fast_pskip=1 / chroma_qp_offset=-2 / threads=34 / lookahead_threads=5 / sliced_threads=0 / nr=0 / decimate=1 / interlaced=0 / bluray_compat=0 / constrained_intra=0 / bframes=8 / b_pyramid=2 / b_adapt=2 / b_bias=0 / direct=3 / weightb=1 / open_gop=0 / weightp=2 / keyint=240 / keyint_min=24 / scenecut=40 / intra_refresh=0 / rc_lookahead=60 / rc=crf / mbtree=1 / crf=20.0 / qcomp=0.60 / qpmin=0 / qpmax=69 / qpstep=4 / vbv_maxrate=62500 / vbv_bufsize=78125 / crf_max=0.0 / nal_hrd=none / filler=0 / ip_ratio=1.40 / aq=1:1.00
    Language                    : English
    Default                     : Yes
    Forced                      : No
    Color range                 : Limited
    Color primaries             : BT.709
    Transfer characteristics    : BT.709
    Matrix coefficients         : BT.709

    Audio #1
    ID                          : 2
    Format                      : DTS
    Format/Info                 : Digital Theater Systems
    Codec ID                    : A_DTS
    Duration                    : 1 h 46 min
    Bit rate mode               : Constant
    Bit rate                    : 768 kb/s
    Channel(s)                  : 6 channels
    Channel layout              : C L R Ls Rs LFE
    Sampling rate               : 48.0 kHz
    Frame rate                  : 93.750 FPS (512 SPF)
    Bit depth                   : 24 bits
    Compression mode            : Lossy
    Delay relative to video     : 5 ms
    Stream size                 : 584 MiB (5%)
    Title                       : Español Latino [CinemaniaHDD]
    Language                    : Spanish
    Default                     : Yes
    Forced                      : No

    Audio #2
    ID                          : 3
    Format                      : DTS
    Format/Info                 : Digital Theater Systems
    Codec ID                    : A_DTS
    Duration                    : 1 h 46 min
    Bit rate mode               : Constant
    Bit rate                    : 1 509 kb/s
    Channel(s)                  : 6 channels
    Channel layout              : C L R Ls Rs LFE
    Sampling rate               : 48.0 kHz
    Frame rate                  : 93.750 FPS (512 SPF)
    Bit depth                   : 24 bits
    Compression mode            : Lossy
    Stream size                 : 1.12 GiB (10%)
    Title                       : Ingles [CinemaniaHDD]
    Language                    : English
    Default                     : No
    Forced                      : No

    Text #1
    ID                          : 4
    Format                      : PGS
    Muxing mode                 : zlib
    Codec ID                    : S_HDMV/PGS
    Codec ID/Info               : Picture based subtitle format used on BDs/HD-DVDs
    Duration                    : 1 h 39 min
    Bit rate                    : 35.6 kb/s
    Count of elements           : 2734
    Stream size                 : 25.2 MiB (0%)
    Title                       : Español-PGS [CinemaniaHDD]
    Language                    : Spanish
    Default                     : No
    Forced                      : No

    Text #2
    ID                          : 5
    Format                      : PGS
    Muxing mode                 : zlib
    Codec ID                    : S_HDMV/PGS
    Codec ID/Info               : Picture based subtitle format used on BDs/HD-DVDs
    Duration                    : 1 h 38 min
    Bit rate                    : 39.4 kb/s
    Count of elements           : 2954
    Stream size                 : 27.7 MiB (0%)
    Title                       : Ingles-PGS [CinemaniaHDD]
    Language                    : English
    Default                     : No
    Forced                      : No

    Text #3
    ID                          : 6
    Format                      : UTF-8
    Codec ID                    : S_TEXT/UTF8
    Codec ID/Info               : UTF-8 Plain Text
    Duration                    : 1 h 36 min
    Bit rate                    : 0 b/s
    Count of elements           : 12
    Stream size                 : 253 Bytes (0%)
    Title                       : Forzados-SRT [CinemaniaHDD]
    Language                    : Spanish
    Default                     : Yes
    Forced                      : No

    Text #4
    ID                          : 7
    Format                      : UTF-8
    Codec ID                    : S_TEXT/UTF8
    Codec ID/Info               : UTF-8 Plain Text
    Duration                    : 1 h 38 min
    Bit rate                    : 63 b/s
    Count of elements           : 1455
    Stream size                 : 45.9 KiB (0%)
    Title                       : Español-SRT [CinemaniaHDD]
    Language                    : Spanish
    Default                     : No
    Forced                      : No

  • Peso: 10.8 GiB

Sinopsis

Descargar Non-Stop: Sin Escalas (2014) OPEN MATTE Full HD 1080p Latino. Bill Marks (Liam Neeson), un veterano agente del servicio aéreo de los Marshalls, se siente bastante quemado tanto con el mundo como con su profesión: no entiende su labor como un deber para salvaguardar vidas, sino como un rutinario trabajo de oficina a bordo de un avión. Sin embargo, un día, en un viaje trasatlántico de Nueva York a Londres recibe una serie de misteriosos mensajes de texto, en los que se le pide que inste al gobierno a hacer una transferencia de 150 millones de dólares a una cuenta secreta, pues, en caso contrario, un pasajero moriría cada 20 minutos. El juego del gato y el ratón se desarrollado a 40.000 pies de altura y con la vida de 200 pasajeros pendiente de un hilo.

RESUBIDO!!!

Ficha técnica

Video trailer de la película

Enlaces de descarga

Rip de Bluray

Descargar Non-Stop: Sin Escalas (2014) OPEN MATTE Full HD 1080p Latino




Aportes de DPeliculasHDmega la pass es:dpeliculashdmega.org Aportes de CinemaniaHD la pass es:cinemaniahdd.com

Películas relacionadas

  • Dune (2021) HMAX 4K-HDR WEB-DL 2160p Latino

    Dune (2021) HMAX 4K-HDR WEB-DL 2160p Latino

    2021
    Dune (2021) HMAX 4K-HDR WEB-DL 2160p Latino

    5.0 2h 35m 2021

    El hijo de una familia noble trata de vengarse de la muerte de su padre al mismo tiempo que salva un...

    Director: Tom Struthers

    Género: Acción

    Actores: Zendaya

  • Dune (2021) HMAX WEB-DL 1080p Latino

    Dune (2021) HMAX WEB-DL 1080p Latino

    2021
    Dune (2021) HMAX WEB-DL 1080p Latino

    5.0 2h 35m 2021

    El hijo de una familia noble trata de vengarse de la muerte de su padre al mismo tiempo que salva un...

    Director: Tom Struthers

    Género: Acción

    Actores: Zendaya

  • Playhouse (2020) PLACEBO Full HD 1080p Latino

    Playhouse (2020) PLACEBO Full HD 1080p Latino

    2020
    Playhouse (2020) PLACEBO Full HD 1080p Latino

    0.0 1h 27m 2020

    Descargar Playhouse (2020) PLACEBO Full HD 1080p Latino. El temerario Jack Travis (William Holstead)...

    Director: Toby Watts

    Género: FULL 1080p Plateadas

    Actores: William Holstead

  • Playhouse (2020) HD 1080p Latino

    Playhouse (2020) HD 1080p Latino

    2020
    Playhouse (2020) HD 1080p Latino

    0.0 1h 27m 2020

    Descargar Playhouse (2020) HD 1080p Latino. El temerario Jack Travis (William Holstead) es un irreverente...

    Director: Toby Watts

    Género: HD 1080p

    Actores: William Holstead

  • Playhouse (2020) REMUX 1080p Latino

    Playhouse (2020) REMUX 1080p Latino

    2020
    Playhouse (2020) REMUX 1080p Latino

    0.0 1h 27m 2020

    Descargar Playhouse (2020) REMUX 1080p Latino. El temerario Jack Travis (William Holstead) es un irreverente...

    Director: Toby Watts

    Género: Remux

    Actores: William Holstead

Non-Stop: Sin Escalas (2014) OPEN MATTE Full HD 1080p Latino pelicula full hd, Non-Stop: Sin Escalas (2014) OPEN MATTE Full HD 1080p Latino mega latino, Non-Stop: Sin Escalas (2014) OPEN MATTE Full HD 1080p Latino 4k latino, Non-Stop: Sin Escalas (2014) OPEN MATTE Full HD 1080p Latino pelicula completa, Non-Stop: Sin Escalas (2014) OPEN MATTE Full HD 1080p Latino descargar gratis, descargar Non-Stop: Sin Escalas (2014) OPEN MATTE Full HD 1080p Latino pelicula latino, Non-Stop: Sin Escalas (2014) OPEN MATTE Full HD 1080p Latino 1 link mega, Non-Stop: Sin Escalas (2014) OPEN MATTE Full HD 1080p Latino 1 link google drive, Non-Stop: Sin Escalas (2014) OPEN MATTE Full HD 1080p Latino hd 1080p latino.
Comentarios 1
  • ocpgaiden - 19 agosto, 2021

    Excelente película de Liam Neeson, saludos