×

¿Problemas para descargar con Mozilla, EDGE? Deshabilita la opción "Abrir vinculos en una pestaña nueva" tal como lo muestra ésta imagen.

Nomadland (2020) REMUX 1080p Latino

216 vistas

Información de Nomadland (2020) REMUX 1080p Latino

Datos de la película

  • Calidad: Full 1080p
  • Audio: Español Latino AC3 5.1 BLURAY - Ingles DTS 5.1 BLURAY
  • Subtitulos: Español Latino PGS - Ingles PGS
  • Resolución: 1920x1080p
  • Formato: MKV
  • Codec: H.264
  • Encoder: Melkor
  • Mediainfo: Clic para Mostrar Datos Ver
  • Nomadland (2020) REMUX 1080p Latino.mkv
    Format                      : Matroska
    Format version              : Version 4
    File size                   : 28.4 GiB
    Duration                    : 1 h 47 min
    Overall bit rate mode       : Variable
    Overall bit rate            : 37.8 Mb/s
    Movie name                  : Nomadland (2020) CinemaniaHDD.Net
    Encoded date                : UTC 2021-04-26 20:26:05
    Writing application         : mkvmerge v56.1.0 ('My Friend') 64-bit
    Writing library             : libebml v1.4.2 + libmatroska v1.6.4
    Attachments                 : CINEMANIAHD.png

    Video
    ID                          : 1
    Format                      : AVC
    Format/Info                 : Advanced Video Codec
    Format profile              : High@L4.1
    Format settings             : CABAC / 4 Ref Frames
    Format settings, CABAC      : Yes
    Format settings, Reference  : 4 frames
    Codec ID                    : V_MPEG4/ISO/AVC
    Duration                    : 1 h 47 min
    Bit rate mode               : Variable
    Bit rate                    : 33.6 Mb/s
    Maximum bit rate            : 37.6 Mb/s
    Width                       : 1 920 pixels
    Height                      : 1 080 pixels
    Display aspect ratio        : 16:9
    Frame rate mode             : Constant
    Frame rate                  : 23.976 (24000/1001) FPS
    Color space                 : YUV
    Chroma subsampling          : 4:2:0
    Bit depth                   : 8 bits
    Scan type                   : Progressive
    Bits/(Pixel*Frame)          : 0.677
    Stream size                 : 25.3 GiB (89%)
    Title                       : REMUX HD1080p [CinemaniaHDD]
    Language                    : English
    Default                     : Yes
    Forced                      : No

    Audio #1
    ID                          : 2
    Format                      : AC-3
    Format/Info                 : Audio Coding 3
    Commercial name             : Dolby Digital
    Codec ID                    : A_AC3
    Duration                    : 1 h 47 min
    Bit rate mode               : Constant
    Bit rate                    : 640 kb/s
    Channel(s)                  : 6 channels
    Channel layout              : L R C LFE Ls Rs
    Sampling rate               : 48.0 kHz
    Frame rate                  : 31.250 FPS (1536 SPF)
    Compression mode            : Lossy
    Stream size                 : 493 MiB (2%)
    Title                       : Español Latino [CinemaniaHDD]
    Language                    : Spanish
    Service kind                : Complete Main
    Default                     : Yes
    Forced                      : No

    Audio #2
    ID                          : 3
    Format                      : DTS XLL
    Format/Info                 : Digital Theater Systems
    Commercial name             : DTS-HD Master Audio
    Codec ID                    : A_DTS
    Duration                    : 1 h 47 min
    Bit rate mode               : Variable
    Bit rate                    : 3 491 kb/s
    Channel(s)                  : 6 channels
    Channel layout              : C L R Ls Rs LFE
    Sampling rate               : 48.0 kHz
    Frame rate                  : 93.750 FPS (512 SPF)
    Bit depth                   : 24 bits
    Compression mode            : Lossless
    Stream size                 : 2.62 GiB (9%)
    Title                       : Ingles [CinemaniaHDD]
    Language                    : English
    Default                     : No
    Forced                      : No

    Text #1
    ID                          : 4
    Format                      : PGS
    Muxing mode                 : zlib
    Codec ID                    : S_HDMV/PGS
    Codec ID/Info               : Picture based subtitle format used on BDs/HD-DVDs
    Duration                    : 1 h 42 min
    Bit rate                    : 487 b/s
    Count of elements           : 24
    Stream size                 : 367 KiB (0%)
    Title                       : Forzados-PGS [CinemaniaHDD]
    Language                    : Spanish
    Default                     : Yes
    Forced                      : No

    Text #2
    ID                          : 5
    Format                      : PGS
    Muxing mode                 : zlib
    Codec ID                    : S_HDMV/PGS
    Codec ID/Info               : Picture based subtitle format used on BDs/HD-DVDs
    Duration                    : 1 h 42 min
    Bit rate                    : 35.6 kb/s
    Count of elements           : 2560
    Stream size                 : 26.2 MiB (0%)
    Title                       : Español-PGS [CinemaniaHDD]
    Language                    : Spanish
    Default                     : No
    Forced                      : No

    Text #3
    ID                          : 6
    Format                      : PGS
    Muxing mode                 : zlib
    Codec ID                    : S_HDMV/PGS
    Codec ID/Info               : Picture based subtitle format used on BDs/HD-DVDs
    Duration                    : 1 h 46 min
    Bit rate                    : 42.1 kb/s
    Count of elements           : 3162
    Stream size                 : 32.0 MiB (0%)
    Title                       : Ingles-PGS [CinemaniaHDD]
    Language                    : English
    Default                     : No
    Forced                      : No

    Text #4
    ID                          : 7
    Format                      : UTF-8
    Codec ID                    : S_TEXT/UTF8
    Codec ID/Info               : UTF-8 Plain Text
    Duration                    : 1 h 42 min
    Bit rate                    : 0 b/s
    Count of elements           : 12
    Stream size                 : 510 Bytes (0%)
    Title                       : Forzados-SRT [CinemaniaHDD]
    Language                    : Spanish
    Default                     : No
    Forced                      : No

    Text #5
    ID                          : 8
    Format                      : UTF-8
    Codec ID                    : S_TEXT/UTF8
    Codec ID/Info               : UTF-8 Plain Text
    Duration                    : 1 h 42 min
    Bit rate                    : 54 b/s
    Count of elements           : 1341
    Stream size                 : 40.6 KiB (0%)
    Title                       : Español-SRT [CinemaniaHDD]
    Language                    : Spanish
    Default                     : No
    Forced                      : No

    Menu
    00:00:00.000                : Leaving Empire
    00:05:04.345                : Amazon
    00:10:45.102                : Rubber Tramp Rendezvous
    00:15:00.107                : Emplyment or Arizona
    00:22:01.570                : Exploring the Park
    00:26:41.975                : RV Show
    00:29:57.629                : Flat
    00:35:22.161                : Months to Live
    00:44:45.474                : Bitches of the Badlands
    00:51:35.425                : Ant Invasion
    00:58:16.117                : Wall Drug
    01:04:35.538                : Immobile
    01:11:40.587                : Sister Support
    01:17:06.371                : Poetry
    01:22:14.763                : Visiting Dave
    01:31:40.077                : No Final Goodbye
    01:38:30.613                : Return to Empire
    01:43:16.606                : End Credits

  • Peso: 28.4 GiB

Sinopsis

Descargar Nomadland (2020) REMUX 1080p Latino. Una mujer de unos sesenta años se embarca en un viaje por el oeste de los Estados Unidos después de perderlo todo en la Gran Recesión, viviendo como una nómada moderna que vive en una furgoneta.

Ficha técnica

Video trailer de la película

Enlaces de descarga

Rip de Bluray

Descargar Nomadland (2020) REMUX 1080p Latino




Aportes de DPeliculasHDmega la pass es:dpeliculashdmega.org Aportes de CinemaniaHD la pass es:cinemaniahdd.com
Guardado en : Drama , Remux , Western

Películas relacionadas

  • Wire Room (2022) REMUX 1080p Latino

    Wire Room (2022) REMUX 1080p Latino

    2022
    Wire Room (2022) REMUX 1080p Latino

    1h 37m 2022

    Descargar Wire Room (2022) REMUX 1080p Latino. Mientras está de servicio en la sala de cables, un agente...

    Director: Matt Eskandari

    Género: Acción

    Actores: Texas Battle

  • Alarido (2022) REMUX 1080p Latino

    Alarido (2022) REMUX 1080p Latino

    2022
    Alarido (2022) REMUX 1080p Latino

    1h 29m 2022

    Descargar Alarido (2022) REMUX 1080p Latino. Una joven madre soltera es cautiva junto con sus dos hijos...

    Director: D.J. Caruso

    Género: Remux

    Actores: Vincent Gallo

  • After: Amor infinito (2022) AMZN WEB-DL 1080p Latino

    After: Amor infinito (2022) AMZN WEB-DL 1080p Latino

    2022
    After: Amor infinito (2022) AMZN WEB-DL 1080p Latino

    1h 35m 2022

    Descargar After: Amor infinito (2022) AMZN WEB-DL 1080p Latino. El amor de Tessa y Hardin nunca ha sido...

    Director: Castille Landon

    Género: Drama

    Actores: Velizar Nikolaev Biney

descargar Nomadland (2020) REMUX 1080p Latino Full 1080p 1080p gratis, Nomadland (2020) REMUX 1080p Latino Full 1080p mega 1 link, Nomadland (2020) REMUX 1080p Latino Full 1080p pelicula completa, descargar Nomadland (2020) REMUX 1080p Latino Full 1080p gratis en mega.

Nomadland (2020) REMUX 1080p Latino pelicula full hd, Nomadland (2020) REMUX 1080p Latino mega latino, Nomadland (2020) REMUX 1080p Latino 4k latino, Nomadland (2020) REMUX 1080p Latino pelicula completa, Nomadland (2020) REMUX 1080p Latino descargar gratis, descargar Nomadland (2020) REMUX 1080p Latino pelicula latino, Nomadland (2020) REMUX 1080p Latino 1 link mega, Nomadland (2020) REMUX 1080p Latino 1 link google drive, Nomadland (2020) REMUX 1080p Latino hd 1080p latino.
Comentarios 0