×

¿Problemas para descargar con Mozilla, EDGE? Deshabilita la opción "Abrir vinculos en una pestaña nueva" tal como lo muestra ésta imagen.

Noé (2014) REMUX 1080p Latino

820 vistas

Información de Noé (2014) REMUX 1080p Latino

Datos de la película

  • Calidad: Full 1080p
  • Audio: Español Latino AC3 5.1 BLURAY - Ingles DTS-HD Master 7.1 BLURAY
  • Subtitulos: Español Latino PGS - Ingles PGS
  • Resolución: 1920x1080p
  • Formato: MKV
  • Codec: H.264
  • Encoder: CinefiloCool
  • Mediainfo: Clic para Mostrar Datos Ver
  • Noe (2014) REMUX 1080p Latino-CMHDD.mkv
    Format                      : Matroska
    Format version              : Version 4
    File size                   : 29.0 GiB
    Duration                    : 2 h 17 min
    Overall bit rate mode       : Variable
    Overall bit rate            : 30.1 Mb/s
    Movie name                  : Noah (2014) CinemaniaHDD.Net
    Encoded date                : UTC 2019-11-27 18:21:38
    Writing application         : mkvmerge v38.0.0 ('The Silent Type') 64-bit
    Writing library             : libebml v1.3.9 + libmatroska v1.5.2
    Attachments                 : CINEMANIAHD.png

    Video
    ID                          : 1
    Format                      : AVC
    Format/Info                 : Advanced Video Codec
    Format profile              : High@L4.1
    Format settings             : CABAC / 4 Ref Frames
    Format settings, CABAC      : Yes
    Format settings, ReFrames   : 4 frames
    Codec ID                    : V_MPEG4/ISO/AVC
    Duration                    : 2 h 17 min
    Bit rate mode               : Variable
    Bit rate                    : 24.3 Mb/s
    Maximum bit rate            : 33.0 Mb/s
    Width                       : 1 920 pixels
    Height                      : 1 080 pixels
    Display aspect ratio        : 16:9
    Frame rate mode             : Constant
    Frame rate                  : 23.976 (24000/1001) FPS
    Color space                 : YUV
    Chroma subsampling          : 4:2:0
    Bit depth                   : 8 bits
    Scan type                   : Progressive
    Bits/(Pixel*Frame)          : 0.488
    Stream size                 : 23.4 GiB (81%)
    Title                       : Full HD1080p [REMUX]
    Default                     : Yes
    Forced                      : Yes

    Audio #1
    ID                          : 2
    Format                      : AC-3
    Format/Info                 : Audio Coding 3
    Commercial name             : Dolby Digital
    Codec ID                    : A_AC3
    Duration                    : 2 h 17 min
    Bit rate mode               : Constant
    Bit rate                    : 640 kb/s
    Channel(s)                  : 6 channels
    Channel layout              : L R C LFE Ls Rs
    Sampling rate               : 48.0 kHz
    Frame rate                  : 31.250 FPS (1536 SPF)
    Bit depth                   : 16 bits
    Compression mode            : Lossy
    Stream size                 : 631 MiB (2%)
    Title                       : AC3_5.1_Bluray_Esp
    Language                    : Spanish
    Service kind                : Complete Main
    Default                     : Yes
    Forced                      : Yes

    Audio #2
    ID                          : 3
    Format                      : DTS XLL
    Format/Info                 : Digital Theater Systems
    Commercial name             : DTS-HD Master Audio
    Codec ID                    : A_DTS
    Duration                    : 2 h 17 min
    Bit rate mode               : Variable
    Bit rate                    : 5 149 kb/s
    Channel(s)                  : 8 channels
    Channel layout              : C L R LFE Lb Rb Lss Rss
    Sampling rate               : 48.0 kHz
    Frame rate                  : 93.750 FPS (512 SPF)
    Bit depth                   : 24 bits
    Compression mode            : Lossless
    Stream size                 : 4.96 GiB (17%)
    Title                       : DTS-HD_7.1_Bluray_Eng
    Language                    : English
    Default                     : No
    Forced                      : No

    Text #1
    ID                          : 4
    Format                      : PGS
    Muxing mode                 : zlib
    Codec ID                    : S_HDMV/PGS
    Codec ID/Info               : Picture based subtitle format used on BDs/HD-DVDs
    Duration                    : 4 min 6 s
    Bit rate                    : 12.0 kb/s
    Count of elements           : 28
    Stream size                 : 361 KiB (0%)
    Title                       : Sub_Forzados [PGS]
    Language                    : Spanish
    Default                     : Yes
    Forced                      : Yes

    Text #2
    ID                          : 5
    Format                      : PGS
    Muxing mode                 : zlib
    Codec ID                    : S_HDMV/PGS
    Codec ID/Info               : Picture based subtitle format used on BDs/HD-DVDs
    Duration                    : 2 h 12 min
    Bit rate                    : 17.8 kb/s
    Count of elements           : 2154
    Stream size                 : 16.8 MiB (0%)
    Title                       : Sub_Esp [PGS]
    Language                    : Spanish
    Default                     : No
    Forced                      : No

    Text #3
    ID                          : 6
    Format                      : PGS
    Muxing mode                 : zlib
    Codec ID                    : S_HDMV/PGS
    Codec ID/Info               : Picture based subtitle format used on BDs/HD-DVDs
    Duration                    : 2 h 8 min
    Bit rate                    : 18.7 kb/s
    Count of elements           : 2248
    Stream size                 : 17.1 MiB (0%)
    Title                       : Sub_Eng [PGS]
    Language                    : English
    Default                     : No
    Forced                      : No

    Text #4
    ID                          : 7
    Format                      : UTF-8
    Codec ID                    : S_TEXT/UTF8
    Codec ID/Info               : UTF-8 Plain Text
    Duration                    : 4 min 7 s
    Bit rate                    : 17 b/s
    Count of elements           : 14
    Stream size                 : 556 Bytes (0%)
    Title                       : Sub_Forzados
    Language                    : Spanish
    Default                     : No
    Forced                      : No

    Text #5
    ID                          : 8
    Format                      : UTF-8
    Codec ID                    : S_TEXT/UTF8
    Codec ID/Info               : UTF-8 Plain Text
    Duration                    : 2 h 12 min
    Bit rate                    : 28 b/s
    Count of elements           : 1067
    Stream size                 : 27.6 KiB (0%)
    Title                       : Sub_Esp
    Language                    : Spanish
    Default                     : No
    Forced                      : No

    Menu
    00:00:00.000                : :Chapter 1
    00:04:48.955                : :Chapter 2
    00:08:37.267                : :Chapter 3
    00:12:23.034                : :Chapter 4
    00:18:43.080                : :Chapter 5
    00:23:25.487                : :Chapter 6
    00:32:06.425                : :Chapter 7
    00:37:27.203                : :Chapter 8
    00:42:50.735                : :Chapter 9
    00:54:35.647                : :Chapter 10
    01:01:14.963                : :Chapter 11
    01:03:28.596                : :Chapter 12
    01:09:33.878                : :Chapter 13
    01:19:18.337                : :Chapter 14
    01:21:56.620                : :Chapter 15
    01:29:12.347                : :Chapter 16
    01:34:02.053                : :Chapter 17
    01:40:27.438                : :Chapter 18
    01:49:23.098                : :Chapter 19
    01:55:57.826                : :Chapter 20
    02:00:37.230                : :Chapter 21
    02:11:32.676                : :Chapter 22

  • Peso: 29.0 GiB

Sinopsis

Descargar Noé (2014) REMUX 1080p Latino. Superproducción épica sobre la figura bíblica de Noé. En un mundo destruido por la perversión de los hombres, un humilde carpintero llamado Noé (Russell Crowe) recibe una importante misión que será trascendental para la evolución y el desarrollo de la raza humana. Dios, cansado del corrupto y depravado comportamiento de los seres humanos a los que él mismo dio vida, advierte a Noé de un necesario e inminente diluvio universal que depure y libere a la tierra de la acción humana. Noé tendrá que construir un arca gigante para salvar a su familia, donde deberá reunir a una pareja de cada especie animal para preservar su conservación y crecimiento tras el apocalíptico diluvio que acabará con la humanidad y su fatídica conducta. El arca evitará que los seres que estén dentro mueran ahogados y los mantendrá con vida para una posterior reconstrucción del universo.

Ficha técnica

Video trailer de la película

Enlaces de descarga

Rip de Bluray

Descargar Noé (2014) REMUX 1080p Latino




Aportes de DPeliculasHDmega la pass es:dpeliculashdmega.org Aportes de CinemaniaHD la pass es:cinemaniahdd.com
Guardado en : Aventura , Drama , Remux

Películas relacionadas

  • Mar de sangre (2022) WEB-DL 1080p Latino

    Mar de sangre (2022) WEB-DL 1080p Latino

    2022
    Mar de sangre (2022) WEB-DL 1080p Latino

    1h 27m 2022

    Descargar Mar de sangre (2022) WEB-DL 1080p Latino. Un grupo de amigos que disfrutan de un fin de semana...

    Director: James Nunn

    Género: Acción

    Actores: Thomas Michael Flynn

  • Noche sin paz (2022) REMUX 1080p Latino

    Noche sin paz (2022) REMUX 1080p Latino

    2022
    Noche sin paz (2022) REMUX 1080p Latino

    1h 41m 2022

    Descargar Noche sin paz (2022) REMUX 1080p Latino. Cuando un equipo de mercenarios irrumpe en Nochebuena...

    Director: Tyshana Hobson

    Género: Acción

    Actores: Yoon Cha-Lee

  • Narvik (2022) NF WEB-DL 1080p Latino

    Narvik (2022) NF WEB-DL 1080p Latino

    2022
    Narvik (2022) NF WEB-DL 1080p Latino

    1h 48m 2022

    Descargar Narvik (2022) NF WEB-DL 1080p Latino. Abril de 1940. Los ojos del mundo están puestos en Narvik,...

    Director: Suzanne Svae-Johansen

    Género: Acción

    Actores: Torfinn Nag

descargar Noé (2014) REMUX 1080p Latino Full 1080p 1080p gratis, Noé (2014) REMUX 1080p Latino Full 1080p mega 1 link, Noé (2014) REMUX 1080p Latino Full 1080p pelicula completa, descargar Noé (2014) REMUX 1080p Latino Full 1080p gratis en mega.

Noé (2014) REMUX 1080p Latino pelicula full hd, Noé (2014) REMUX 1080p Latino mega latino, Noé (2014) REMUX 1080p Latino 4k latino, Noé (2014) REMUX 1080p Latino pelicula completa, Noé (2014) REMUX 1080p Latino descargar gratis, descargar Noé (2014) REMUX 1080p Latino pelicula latino, Noé (2014) REMUX 1080p Latino 1 link mega, Noé (2014) REMUX 1080p Latino 1 link google drive, Noé (2014) REMUX 1080p Latino hd 1080p latino.
Comentarios 0