×

¿Problemas para descargar con Mozilla, EDGE? Deshabilita la opción "Abrir vinculos en una pestaña nueva" tal como lo muestra ésta imagen.

Animales nocturnos (2016) 1080p Latino

243 vistas

Información de Animales nocturnos (2016) 1080p Latino

Datos de la película

  • Calidad: 1080p
  • Audio: Español Latino AC3 5.1 BLURAY - Ingles AC3 5.1 BLURAY
  • Subtitulos: Español Latino SRT - Ingles SRT
  • Resolución: 1920x792p
  • Formato: MKV
  • Codec: H.264
  • Encoder: CinefiloCool
  • Mediainfo: Clic para Mostrar Datos Ver
  • Animales Nocturnos (2016) 1080p Latino-CMHDD.mkv
    Format                      : Matroska
    Format version              : Version 4
    File size                   : 3.72 GiB
    Duration                    : 1 h 56 min
    Overall bit rate            : 4 589 kb/s
    Movie name                  : Nocturnal Animals (2016) CinemaniaHDD.Net
    Encoded date                : UTC 2021-04-01 17:19:50
    Writing application         : mkvmerge v51.0.0 ('I Wish') 64-bit
    Writing library             : libebml v1.4.0 + libmatroska v1.6.2
    Attachments                 : CINEMANIAHD.png

    Video
    ID                          : 1
    Format                      : AVC
    Format/Info                 : Advanced Video Codec
    Format profile              : High@L4.1
    Format settings             : CABAC / 5 Ref Frames
    Format settings, CABAC      : Yes
    Format settings, Reference  : 5 frames
    Codec ID                    : V_MPEG4/ISO/AVC
    Duration                    : 1 h 56 min
    Bit rate                    : 3 500 kb/s
    Width                       : 1 920 pixels
    Height                      : 792 pixels
    Display aspect ratio        : 2.40:1
    Frame rate mode             : Constant
    Frame rate                  : 23.976 (24000/1001) FPS
    Color space                 : YUV
    Chroma subsampling          : 4:2:0
    Bit depth                   : 8 bits
    Scan type                   : Progressive
    Bits/(Pixel*Frame)          : 0.096
    Stream size                 : 2.84 GiB (76%)
    Title                       : HD1080p [CinemaniaHDD]
    Writing library             : x264 core 157 r2935 545de2f
    Encoding settings           : cabac=1 / ref=5 / deblock=1:-1:-1 / analyse=0x3:0x133 / me=umh / subme=9 / psy=1 / psy_rd=1.00:0.15 / mixed_ref=1 / me_range=16 / chroma_me=1 / trellis=2 / 8x8dct=1 / cqm=0 / deadzone=21,11 / fast_pskip=1 / chroma_qp_offset=-3 / threads=24 / lookahead_threads=2 / sliced_threads=0 / nr=0 / decimate=1 / interlaced=0 / bluray_compat=0 / constrained_intra=0 / bframes=3 / b_pyramid=2 / b_adapt=2 / b_bias=0 / direct=3 / weightb=1 / open_gop=0 / weightp=2 / keyint=240 / keyint_min=24 / scenecut=40 / intra_refresh=0 / rc_lookahead=60 / rc=2pass / mbtree=1 / bitrate=3500 / ratetol=1.0 / qcomp=0.60 / qpmin=0 / qpmax=69 / qpstep=4 / cplxblur=20.0 / qblur=0.5 / vbv_maxrate=62500 / vbv_bufsize=78125 / nal_hrd=none / filler=0 / ip_ratio=1.40 / aq=1:1.00
    Default                     : Yes
    Forced                      : Yes
    Color range                 : Limited
    Color primaries             : BT.709
    Transfer characteristics    : BT.709
    Matrix coefficients         : BT.709

    Audio #1
    ID                          : 2
    Format                      : AC-3
    Format/Info                 : Audio Coding 3
    Commercial name             : Dolby Digital
    Codec ID                    : A_AC3
    Duration                    : 1 h 56 min
    Bit rate mode               : Constant
    Bit rate                    : 640 kb/s
    Channel(s)                  : 6 channels
    Channel layout              : L R C LFE Ls Rs
    Sampling rate               : 48.0 kHz
    Frame rate                  : 31.250 FPS (1536 SPF)
    Compression mode            : Lossy
    Delay relative to video     : -5 ms
    Stream size                 : 532 MiB (14%)
    Title                       : Español Latino [CinemaniaHDD]
    Language                    : Spanish
    Service kind                : Complete Main
    Default                     : Yes
    Forced                      : Yes

    Audio #2
    ID                          : 3
    Format                      : AC-3
    Format/Info                 : Audio Coding 3
    Commercial name             : Dolby Digital
    Codec ID                    : A_AC3
    Duration                    : 1 h 56 min
    Bit rate mode               : Constant
    Bit rate                    : 448 kb/s
    Channel(s)                  : 6 channels
    Channel layout              : L R C LFE Ls Rs
    Sampling rate               : 48.0 kHz
    Frame rate                  : 31.250 FPS (1536 SPF)
    Compression mode            : Lossy
    Delay relative to video     : -5 ms
    Stream size                 : 372 MiB (10%)
    Title                       : Ingles [CinemaniaHDD]
    Language                    : English
    Service kind                : Complete Main
    Default                     : No
    Forced                      : No

    Text #1
    ID                          : 4
    Format                      : UTF-8
    Codec ID                    : S_TEXT/UTF8
    Codec ID/Info               : UTF-8 Plain Text
    Duration                    : 1 h 52 min
    Bit rate                    : 0 b/s
    Count of elements           : 22
    Stream size                 : 838 Bytes (0%)
    Title                       : Forzados-SRT [CinemaniaHDD]
    Language                    : Spanish
    Default                     : Yes
    Forced                      : Yes

    Text #2
    ID                          : 5
    Format                      : UTF-8
    Codec ID                    : S_TEXT/UTF8
    Codec ID/Info               : UTF-8 Plain Text
    Duration                    : 1 h 42 min
    Bit rate                    : 59 b/s
    Count of elements           : 1376
    Stream size                 : 44.9 KiB (0%)
    Title                       : Español-SRT [CinemaniaHDD]
    Language                    : Spanish
    Default                     : No
    Forced                      : No

    Text #3
    ID                          : 6
    Format                      : UTF-8
    Codec ID                    : S_TEXT/UTF8
    Codec ID/Info               : UTF-8 Plain Text
    Duration                    : 1 h 50 min
    Bit rate                    : 60 b/s
    Count of elements           : 1397
    Stream size                 : 48.8 KiB (0%)
    Title                       : Ingles-SRT [CinemaniaHDD]
    Language                    : English
    Default                     : No
    Forced                      : No

    Menu
    00:00:00.000                : en:Chapter 1
    00:05:25.867                : en:Chapter 2
    00:09:35.741                : en:Chapter 3
    00:13:32.853                : en:Chapter 4
    00:19:32.754                : en:Chapter 5
    00:29:48.870                : en:Chapter 6
    00:34:29.901                : en:Chapter 7
    00:40:00.731                : en:Chapter 8
    00:45:11.333                : en:Chapter 9
    00:52:55.422                : en:Chapter 10
    00:59:37.407                : en:Chapter 11
    01:04:15.768                : en:Chapter 12
    01:12:49.615                : en:Chapter 13
    01:20:03.215                : en:Chapter 14
    01:25:11.898                : en:Chapter 15
    01:31:53.299                : en:Chapter 16
    01:35:24.009                : en:Chapter 17
    01:40:48.876                : en:Chapter 18
    01:45:04.589                : en:Chapter 19
    01:49:45.579                : en:Chapter 20

  • Peso: 3.72 GiB

Sinopsis

Descargar Animales nocturnos (2016) 1080p Latino. Susan Morrow es una galerista afincada en Los Ángeles que comparte una vida llena de lujos, aunque vacía, con Hutton Morrow, su segundo marido. Un día, Susan recibe una novela escrita por su exmarido Edward Sheffiel, del que lleva años sin tener noticias. En una nota le pide que lea la novela inédita y que se ponga en contacto con él, pues se quedará unos días en la ciudad. Es de noche. Susan, sola en la cama, empieza a leer, y es la historia de un matrimonio con una hija que conduciendo por Texas una noche, son perseguidos por otro vehículo…

Ficha técnica

Video trailer de la película

Enlaces de descarga

Rip de Bluray

Descargar Animales nocturnos (2016) 1080p Latino




Aportes de DPeliculasHDmega la pass es:dpeliculashdmega.org Aportes de CinemaniaHD la pass es:cinemaniahdd.com
Guardado en : Drama , HD 1080p , Suspenso

Películas relacionadas

descargar Animales nocturnos (2016) 1080p Latino 1080p 1080p gratis, Animales nocturnos (2016) 1080p Latino 1080p mega 1 link, Animales nocturnos (2016) 1080p Latino 1080p pelicula completa, descargar Animales nocturnos (2016) 1080p Latino 1080p gratis en mega.

Animales nocturnos (2016) 1080p Latino pelicula full hd, Animales nocturnos (2016) 1080p Latino mega latino, Animales nocturnos (2016) 1080p Latino 4k latino, Animales nocturnos (2016) 1080p Latino pelicula completa, Animales nocturnos (2016) 1080p Latino descargar gratis, descargar Animales nocturnos (2016) 1080p Latino pelicula latino, Animales nocturnos (2016) 1080p Latino 1 link mega, Animales nocturnos (2016) 1080p Latino 1 link google drive, Animales nocturnos (2016) 1080p Latino hd 1080p latino.