Animales nocturnos (2016) Full HD 1080p Latino

1.558 vistas
1 estrella2 estrellas3 estrellas4 estrellas5 estrellas (2 votos, promedio: 3,00 de 5)
Cargando...

Información de Animales nocturnos (2016) Full HD 1080p Latino

Datos de la película

  • Calidad: Full 1080p
  • Audio: Español Latino DTS 5.1 BLURAY - Ingles DTS 5.1 BLURAY
  • Subtitulos: Español Latino PGS - Ingles PGS
  • Resolución: 1920x1080p
  • Formato: MKV
  • Codec: H.264
  • Encoder: Dracarys | CinefiloCool
  • Mediainfo: Clic para Mostrar Datos Ver
  • \Animales Nocturnos (2016) Full HD 1080p Latino-CMHDD.mkv
    Format                      : Matroska
    Format version              : Version 4
    File size                   : 8.02 GiB
    Duration                    : 1 h 56 min
    Overall bit rate            : 9 890 kb/s
    Movie name                  : Nocturnal Animals (2016) CinemaniaHDD.Net
    Encoded date                : UTC 2021-04-01 17:09:46
    Writing application         : mkvmerge v51.0.0 ('I Wish') 64-bit
    Writing library             : libebml v1.4.0 + libmatroska v1.6.2
    Attachments                 : CINEMANIAHD.png

    Video
    ID                          : 1
    Format                      : AVC
    Format/Info                 : Advanced Video Codec
    Format profile              : High@L4.1
    Format settings             : CABAC / 4 Ref Frames
    Format settings, CABAC      : Yes
    Format settings, Reference  : 4 frames
    Codec ID                    : V_MPEG4/ISO/AVC
    Duration                    : 1 h 56 min
    Bit rate                    : 7 588 kb/s
    Width                       : 1 920 pixels
    Height                      : 1 080 pixels
    Display aspect ratio        : 16:9
    Frame rate mode             : Constant
    Frame rate                  : 23.976 (24000/1001) FPS
    Color space                 : YUV
    Chroma subsampling          : 4:2:0
    Bit depth                   : 8 bits
    Scan type                   : Progressive
    Bits/(Pixel*Frame)          : 0.153
    Stream size                 : 6.16 GiB (77%)
    Title                       : Full HD1080p [CinemaniaHDD]
    Writing library             : x264 core 157 r2935 545de2f
    Encoding settings           : cabac=1 / ref=4 / deblock=1:0:0 / analyse=0x3:0x133 / me=tesa / subme=11 / psy=1 / psy_rd=1.00:0.00 / mixed_ref=1 / me_range=24 / chroma_me=1 / trellis=2 / 8x8dct=1 / cqm=0 / deadzone=21,11 / fast_pskip=0 / chroma_qp_offset=-2 / threads=24 / lookahead_threads=6 / sliced_threads=0 / nr=0 / decimate=1 / interlaced=0 / bluray_compat=0 / constrained_intra=0 / bframes=16 / b_pyramid=2 / b_adapt=2 / b_bias=0 / direct=3 / weightb=1 / open_gop=0 / weightp=2 / keyint=240 / keyint_min=24 / scenecut=40 / intra_refresh=0 / rc_lookahead=60 / rc=crf / mbtree=1 / crf=18.0 / qcomp=0.60 / qpmin=0 / qpmax=69 / qpstep=4 / vbv_maxrate=62500 / vbv_bufsize=78125 / crf_max=0.0 / nal_hrd=none / filler=0 / ip_ratio=1.40 / aq=1:1.00
    Default                     : Yes
    Forced                      : Yes
    Color range                 : Limited
    Color primaries             : BT.709
    Transfer characteristics    : BT.709
    Matrix coefficients         : BT.709

    Audio #1
    ID                          : 2
    Format                      : DTS
    Format/Info                 : Digital Theater Systems
    Codec ID                    : A_DTS
    Duration                    : 1 h 56 min
    Bit rate mode               : Constant
    Bit rate                    : 768 kb/s
    Channel(s)                  : 6 channels
    Channel layout              : C L R Ls Rs LFE
    Sampling rate               : 48.0 kHz
    Frame rate                  : 93.750 FPS (512 SPF)
    Bit depth                   : 24 bits
    Compression mode            : Lossy
    Stream size                 : 638 MiB (8%)
    Title                       : Español Latino [CinemaniaHDD]
    Language                    : Spanish
    Default                     : Yes
    Forced                      : Yes

    Audio #2
    ID                          : 3
    Format                      : DTS
    Format/Info                 : Digital Theater Systems
    Codec ID                    : A_DTS
    Duration                    : 1 h 56 min
    Bit rate mode               : Constant
    Bit rate                    : 1 509 kb/s
    Channel(s)                  : 6 channels
    Channel layout              : C L R Ls Rs LFE
    Sampling rate               : 48.0 kHz
    Frame rate                  : 93.750 FPS (512 SPF)
    Bit depth                   : 24 bits
    Compression mode            : Lossy
    Stream size                 : 1.22 GiB (15%)
    Title                       : Ingles [CinemaniaHDD]
    Language                    : English
    Default                     : No
    Forced                      : No

    Text #1
    ID                          : 4
    Format                      : PGS
    Muxing mode                 : zlib
    Codec ID                    : S_HDMV/PGS
    Codec ID/Info               : Picture based subtitle format used on BDs/HD-DVDs
    Duration                    : 1 h 50 min
    Bit rate                    : 469 b/s
    Count of elements           : 30
    Stream size                 : 381 KiB (0%)
    Title                       : Forzados-PGS [CinemaniaHDD]
    Language                    : Spanish
    Default                     : Yes
    Forced                      : Yes

    Text #2
    ID                          : 5
    Format                      : PGS
    Muxing mode                 : zlib
    Codec ID                    : S_HDMV/PGS
    Codec ID/Info               : Picture based subtitle format used on BDs/HD-DVDs
    Duration                    : 1 h 54 min
    Bit rate                    : 33.0 kb/s
    Count of elements           : 2760
    Stream size                 : 27.1 MiB (0%)
    Title                       : Español-PGS [CinemaniaHDD]
    Language                    : Spanish
    Default                     : No
    Forced                      : No

    Text #3
    ID                          : 6
    Format                      : PGS
    Muxing mode                 : zlib
    Codec ID                    : S_HDMV/PGS
    Codec ID/Info               : Picture based subtitle format used on BDs/HD-DVDs
    Duration                    : 1 h 44 min
    Bit rate                    : 43.7 kb/s
    Count of elements           : 2944
    Stream size                 : 32.7 MiB (0%)
    Title                       : Ingles-PGS [CinemaniaHDD]
    Language                    : English
    Default                     : No
    Forced                      : No

    Text #4
    ID                          : 7
    Format                      : UTF-8
    Codec ID                    : S_TEXT/UTF8
    Codec ID/Info               : UTF-8 Plain Text
    Duration                    : 1 h 52 min
    Bit rate                    : 0 b/s
    Count of elements           : 22
    Stream size                 : 838 Bytes (0%)
    Title                       : Forzados-SRT [CinemaniaHDD]
    Language                    : Spanish
    Default                     : No
    Forced                      : No

    Text #5
    ID                          : 8
    Format                      : UTF-8
    Codec ID                    : S_TEXT/UTF8
    Codec ID/Info               : UTF-8 Plain Text
    Duration                    : 1 h 42 min
    Bit rate                    : 59 b/s
    Count of elements           : 1376
    Stream size                 : 44.9 KiB (0%)
    Title                       : Español-SRT [CinemaniaHDD]
    Language                    : Spanish
    Default                     : No
    Forced                      : No

    Menu
    00:00:00.000                : en:Chapter 1
    00:05:25.867                : en:Chapter 2
    00:09:35.741                : en:Chapter 3
    00:13:32.853                : en:Chapter 4
    00:19:32.754                : en:Chapter 5
    00:29:48.870                : en:Chapter 6
    00:34:29.901                : en:Chapter 7
    00:40:00.731                : en:Chapter 8
    00:45:11.333                : en:Chapter 9
    00:52:55.422                : en:Chapter 10
    00:59:37.407                : en:Chapter 11
    01:04:15.768                : en:Chapter 12
    01:12:49.615                : en:Chapter 13
    01:20:03.215                : en:Chapter 14
    01:25:11.898                : en:Chapter 15
    01:31:53.299                : en:Chapter 16
    01:35:24.009                : en:Chapter 17
    01:40:48.876                : en:Chapter 18
    01:45:04.589                : en:Chapter 19
    01:49:45.579                : en:Chapter 20

  • Peso: 8.02 GiB

Sinopsis

Descargar Animales nocturnos (2016) Full HD 1080p Latino. Susan Morrow es una galerista afincada en Los Ángeles que comparte una vida llena de lujos, aunque vacía, con Hutton Morrow, su segundo marido. Un día, Susan recibe una novela escrita por su exmarido Edward Sheffiel, del que lleva años sin tener noticias. En una nota le pide que lea la novela inédita y que se ponga en contacto con él, pues se quedará unos días en la ciudad. Es de noche. Susan, sola en la cama, empieza a leer, y es la historia de un matrimonio con una hija que conduciendo por Texas una noche, son perseguidos por otro vehículo…

RESUBIDO NUEVO RIP VERSION PLACEBO!!!

Ficha técnica

Video trailer de la película

Enlaces de descarga

Rip de Bluray

Descargar Animales nocturnos (2016) Full HD 1080p Latino




Aportes de DPeliculasHDmega la pass es:dpeliculashdmega.org Aportes de CinemaniaHD la pass es:cinemaniahdd.com

Películas relacionadas

  • La chica de rosa (1986) Full HD 1080p Latino

    La chica de rosa (1986) Full HD 1080p Latino

    1986
    La chica de rosa (1986) Full HD 1080p Latino

    0.0 1h 36m 1986

    Descargar La chica de rosa (1986) Full HD 1080p Latino. Andie Walsh (Molly Ringwald), una buena estudiante...

    Director: Pamela Alch

    Género: Comedia

    Actores: Molly Ringwald

  • Escucha tu destino (2007) 1080p Latino

    Escucha tu destino (2007) 1080p Latino

    2007
    Escucha tu destino (2007) 1080p Latino

    0.0 1h 53m 2007

    Descargar Escucha tu destino (2007) 1080p Latino. Un joven guitarrista irlandés (Jonathan Rhys Meyers)...

    Director: Kirsten Sheridan

    Género: Drama

    Actores: Zach Page

  • Escucha tu destino (2007) Full HD 1080p Latino

    Escucha tu destino (2007) Full HD 1080p Latino

    2007
    Escucha tu destino (2007) Full HD 1080p Latino

    0.0 1h 53m 2007

    Descargar Escucha tu destino (2007) Full HD 1080p Latino. Un joven guitarrista irlandés (Jonathan Rhys...

    Director: Kirsten Sheridan

    Género: Drama

    Actores: Zach Page

Animales nocturnos (2016) Full HD 1080p Latino pelicula full hd, Animales nocturnos (2016) Full HD 1080p Latino mega latino, Animales nocturnos (2016) Full HD 1080p Latino 4k latino, Animales nocturnos (2016) Full HD 1080p Latino pelicula completa, Animales nocturnos (2016) Full HD 1080p Latino descargar gratis, descargar Animales nocturnos (2016) Full HD 1080p Latino pelicula latino, Animales nocturnos (2016) Full HD 1080p Latino 1 link mega, Animales nocturnos (2016) Full HD 1080p Latino 1 link google drive, Animales nocturnos (2016) Full HD 1080p Latino hd 1080p latino.
Comentarios 0