×

¿Problemas para descargar con Mozilla, EDGE? Deshabilita la opción "Abrir vinculos en una pestaña nueva" tal como lo muestra ésta imagen.

Noche sin paz (2022) PLACEBO Full HD 1080p Latino

27 vistas

Información de Noche sin paz (2022) PLACEBO Full HD 1080p Latino

Datos de la película

  • Calidad: Full 1080p
  • Audio: Español Latino DTS 5.1 BLURAY - Ingles DTS 5.1 BLURAY
  • Subtitulos: Español Latino PGS - Ingles PGS
  • Resolución: 1920x1080p
  • Formato: MKV
  • Codec: H.264
  • Encoder: Melkor
  • Mediainfo: Clic para Mostrar Datos Ver
  • Noche Sin Paz (2022) PLACEBO 1080p Latino.mkv Format                      : Matroska Format version              : Version 4 File size                   : 6.62 GiB Duration                    : 1 h 51 min Overall bit rate            : 8 495 kb/s Movie name                  : Violent Night (2022) CinemaniaHDD.Net Encoded date                : UTC 2023-01-24 06:55:06 Writing application         : mkvmerge v56.1.0 ('My Friend') 64-bit Writing library             : libebml v1.4.2 + libmatroska v1.6.4 Attachments                 : CINEMANIAHD.png Video ID                          : 1 Format                      : AVC Format/Info                 : Advanced Video Codec Format profile              : High@L4.1 Format settings             : CABAC / 4 Ref Frames Format settings, CABAC      : Yes Format settings, Reference  : 4 frames Codec ID                    : V_MPEG4/ISO/AVC Duration                    : 1 h 51 min Bit rate                    : 5 453 kb/s Width                       : 1 920 pixels Height                      : 1 080 pixels Display aspect ratio        : 16:9 Frame rate mode             : Constant Frame rate                  : 23.976 (24000/1001) FPS Color space                 : YUV Chroma subsampling          : 4:2:0 Bit depth                   : 8 bits Scan type                   : Progressive Bits/(Pixel*Frame)          : 0.110 Stream size                 : 4.25 GiB (64%) Title                       : Full HD1080p [CinemaniaHDD] Writing library             : x264 core 163 r3059 b684ebe0 Encoding settings           : cabac=1 / ref=4 / deblock=1:0:0 / analyse=0x3:0x133 / me=tesa / subme=11 / psy=1 / psy_rd=1.00:0.00 / mixed_ref=1 / me_range=24 / chroma_me=1 / trellis=2 / 8x8dct=1 / cqm=0 / deadzone=21,11 / fast_pskip=0 / chroma_qp_offset=-2 / threads=24 / lookahead_threads=6 / sliced_threads=0 / nr=0 / decimate=1 / interlaced=0 / bluray_compat=0 / constrained_intra=0 / bframes=16 / b_pyramid=2 / b_adapt=2 / b_bias=0 / direct=3 / weightb=1 / open_gop=0 / weightp=2 / keyint=240 / keyint_min=24 / scenecut=40 / intra_refresh=0 / rc_lookahead=60 / rc=crf / mbtree=1 / crf=18.5 / qcomp=0.60 / qpmin=0 / qpmax=69 / qpstep=4 / vbv_maxrate=62500 / vbv_bufsize=78125 / crf_max=0.0 / nal_hrd=none / filler=0 / ip_ratio=1.40 / aq=1:1.00 Default                     : Yes Forced                      : Yes Color range                 : Limited Color primaries             : BT.709 Transfer characteristics    : BT.709 Matrix coefficients         : BT.709 Audio #1 ID                          : 2 Format                      : DTS Format/Info                 : Digital Theater Systems Codec ID                    : A_DTS Duration                    : 1 h 51 min Bit rate mode               : Constant Bit rate                    : 1 509 kb/s Channel(s)                  : 6 channels Channel layout              : C L R Ls Rs LFE Sampling rate               : 48.0 kHz Frame rate                  : 93.750 FPS (512 SPF) Bit depth                   : 24 bits Compression mode            : Lossy Stream size                 : 1.18 GiB (18%) Title                       : Español Latino [CinemaniaHDD] Language                    : Spanish Default                     : Yes Forced                      : Yes Audio #2 ID                          : 3 Format                      : DTS Format/Info                 : Digital Theater Systems Codec ID                    : A_DTS Duration                    : 1 h 51 min Bit rate mode               : Constant Bit rate                    : 1 509 kb/s Channel(s)                  : 6 channels Channel layout              : C L R Ls Rs LFE Sampling rate               : 48.0 kHz Frame rate                  : 93.750 FPS (512 SPF) Bit depth                   : 24 bits Compression mode            : Lossy Stream size                 : 1.18 GiB (18%) Title                       : Ingles [CinemaniaHDD] Language                    : English Default                     : No Forced                      : No Text #1 ID                          : 4 ID in the original source m : 4615 (0x1207) Format                      : PGS Muxing mode                 : zlib Codec ID                    : S_HDMV/PGS Codec ID/Info               : Picture based subtitle format used on BDs/HD-DVDs Duration                    : 1 h 38 min Bit rate                    : 58 b/s Count of elements           : 6 Stream size                 : 41.8 KiB (0%) Title                       : Forzados-PGS [CinemaniaHDD] Language                    : Spanish Default                     : No Forced                      : No Original source medium      : Blu-ray Text #2 ID                          : 5 ID in the original source m : 4609 (0x1201) Format                      : PGS Muxing mode                 : zlib Codec ID                    : S_HDMV/PGS Codec ID/Info               : Picture based subtitle format used on BDs/HD-DVDs Duration                    : 1 h 50 min Bit rate                    : 29.6 kb/s Count of elements           : 2644 Stream size                 : 23.5 MiB (0%) Title                       : Español-PGS [CinemaniaHDD] Language                    : Spanish Default                     : No Forced                      : No Original source medium      : Blu-ray Text #3 ID                          : 6 ID in the original source m : 4608 (0x1200) Format                      : PGS Muxing mode                 : zlib Codec ID                    : S_HDMV/PGS Codec ID/Info               : Picture based subtitle format used on BDs/HD-DVDs Duration                    : 1 h 47 min Bit rate                    : 38.6 kb/s Count of elements           : 3358 Stream size                 : 29.6 MiB (0%) Title                       : Ingles-PGS [CinemaniaHDD] Language                    : English Default                     : No Forced                      : No Original source medium      : Blu-ray Text #4 ID                          : 7 Format                      : UTF-8 Codec ID                    : S_TEXT/UTF8 Codec ID/Info               : UTF-8 Plain Text Duration                    : 1 h 20 min Bit rate                    : 0 b/s Count of elements           : 2 Stream size                 : 42.0 Bytes (0%) Title                       : Forzados-SRT [CinemaniaHDD] Language                    : Spanish Default                     : Yes Forced                      : Yes Text #5 ID                          : 8 Format                      : UTF-8 Codec ID                    : S_TEXT/UTF8 Codec ID/Info               : UTF-8 Plain Text Duration                    : 1 h 50 min Bit rate                    : 47 b/s Count of elements           : 1314 Stream size                 : 38.5 KiB (0%) Title                       : Español-SRT [CinemaniaHDD] Language                    : Spanish Default                     : No Forced                      : No Menu 00:00:00.000                : Chapter 01 00:04:52.166                : Chapter 02 00:07:55.516                : Chapter 03 00:13:14.376                : Chapter 04 00:17:55.949                : Chapter 05 00:21:23.782                : Chapter 06 00:29:55.960                : Chapter 07 00:33:29.090                : Chapter 08 00:38:41.736                : Chapter 09 00:44:14.068                : Chapter 10 00:52:57.799                : Chapter 11 00:58:51.945                : Chapter 12 01:09:29.165                : Chapter 13 01:15:18.055                : Chapter 14 01:20:00.712                : Chapter 15 01:24:39.449                : Chapter 16 01:28:12.453                : Chapter 17 01:32:51.774                : Chapter 18 01:37:49.405                : Chapter 19 01:45:31.992                : Chapter 20
  • Peso: 6.62 GiB

Sinopsis

Descargar Noche sin paz (2022) PLACEBO Full HD 1080p Latino. Cuando un equipo de mercenarios irrumpe en Nochebuena dentro de un complejo familiar adinerado y toma como rehenes a todos los que están dentro, no estaban preparados para un defensor sorpresa: Santa Claus (David Harbour) está en el edificio y a punto de demostrar por qué este Santa Claus, no es ningún santo.

Ficha técnica

Video trailer de la película

Enlaces de descarga

Rip de Bluray

Descargar Noche sin paz (2022) PLACEBO Full HD 1080p Latino




Aportes de DPeliculasHDmega la pass es:dpeliculashdmega.org Aportes de CinemaniaHD la pass es:cinemaniahdd.com

Películas relacionadas

  • Corazón de tinta (2008) Full HD 1080p Latino

    Corazón de tinta (2008) Full HD 1080p Latino

    2008
    Corazón de tinta (2008) Full HD 1080p Latino

    1h 46m 2008

    Descargar Corazón de tinta (2008) Full HD 1080p Latino. Mortimer “Mo” Folchart y su hija de 12 años,...

    Director: Sharon Mansfield

    Género: Aventura

    Actores: Terry Cavanagh

  • Juego de espías (2001) 1080p Latino

    Juego de espías (2001) 1080p Latino

    2001
    Juego de espías (2001) 1080p Latino

    2h 6m 2001

    Descargar Juego de espías (2001) 1080p Latino. Corre el año 1991, y al veterano agente de la CIA Nathan...

    Director: Tony Scott

    Género: Acción

    Actores: Zsolt Zágoni

  • Juego de espías (2001) Full HD 1080p Latino

    Juego de espías (2001) Full HD 1080p Latino

    2001
    Juego de espías (2001) Full HD 1080p Latino

    2h 6m 2001

    Descargar Juego de espías (2001) Full HD 1080p Latino. Corre el año 1991, y al veterano agente de la...

    Director: Tony Scott

    Género: Acción

    Actores: Zsolt Zágoni

  • Juego de espías (2001) REMUX 1080p Latino

    Juego de espías (2001) REMUX 1080p Latino

    2001
    Juego de espías (2001) REMUX 1080p Latino

    1h 55m 2001

    Descargar Juego de espías (2001) REMUX 1080p Latino. El día de su jubilación, el veterano agente de...

    Director: Tony Scott

    Género: Acción

    Actores: Zsolt Zágoni

descargar Noche sin paz (2022) PLACEBO Full HD 1080p Latino Full 1080p 1080p gratis, Noche sin paz (2022) PLACEBO Full HD 1080p Latino Full 1080p mega 1 link, Noche sin paz (2022) PLACEBO Full HD 1080p Latino Full 1080p pelicula completa, descargar Noche sin paz (2022) PLACEBO Full HD 1080p Latino Full 1080p gratis en mega.

Noche sin paz (2022) PLACEBO Full HD 1080p Latino pelicula full hd, Noche sin paz (2022) PLACEBO Full HD 1080p Latino mega latino, Noche sin paz (2022) PLACEBO Full HD 1080p Latino 4k latino, Noche sin paz (2022) PLACEBO Full HD 1080p Latino pelicula completa, Noche sin paz (2022) PLACEBO Full HD 1080p Latino descargar gratis, descargar Noche sin paz (2022) PLACEBO Full HD 1080p Latino pelicula latino, Noche sin paz (2022) PLACEBO Full HD 1080p Latino 1 link mega, Noche sin paz (2022) PLACEBO Full HD 1080p Latino 1 link google drive, Noche sin paz (2022) PLACEBO Full HD 1080p Latino hd 1080p latino.
Comentarios 0