×

¿Problemas para descargar con Mozilla, EDGE? Deshabilita la opción "Abrir vinculos en una pestaña nueva" tal como lo muestra ésta imagen.

Boda Sangrienta (2019) 1080p Latino

1.697 vistas

Información de Boda Sangrienta (2019) 1080p Latino

Datos de la película

  • Calidad: 1080p
  • Audio: Español Latino AC3 5.1 BLURAY - Ingles AC3 5.1 BLURAY
  • Subtitulos: Español Latino SRT - Ingles SRT
  • Resolución: 1920x804p
  • Formato: MKV
  • Codec: H.264
  • Encoder: CinefiloCool
  • Mediainfo: Clic para Mostrar Datos Ver
  • Boda Sangrienta (2019) 1080p Latino-CMHDD.mkv
    Format                      : Matroska
    Format version              : Version 4
    File size                   : 2.91 GiB
    Duration                    : 1 h 35 min
    Overall bit rate            : 4 373 kb/s
    Movie name                  : CinemaniaHDD.Net
    Encoded date                : UTC 2019-11-21 23:53:30
    Writing application         : mkvmerge v38.0.0 ('The Silent Type') 64-bit
    Writing library             : libebml v1.3.9 + libmatroska v1.5.2
    Attachments                 : CINEMANIAHD.png

    Video
    ID                          : 1
    Format                      : AVC
    Format/Info                 : Advanced Video Codec
    Format profile              : High@L4.1
    Format settings             : CABAC / 5 Ref Frames
    Format settings, CABAC      : Yes
    Format settings, ReFrames   : 5 frames
    Codec ID                    : V_MPEG4/ISO/AVC
    Duration                    : 1 h 35 min
    Bit rate                    : 3 500 kb/s
    Width                       : 1 920 pixels
    Height                      : 804 pixels
    Display aspect ratio        : 2.40:1
    Frame rate mode             : Constant
    Frame rate                  : 23.976 (24000/1001) FPS
    Color space                 : YUV
    Chroma subsampling          : 4:2:0
    Bit depth                   : 8 bits
    Scan type                   : Progressive
    Bits/(Pixel*Frame)          : 0.095
    Stream size                 : 2.31 GiB (79%)
    Title                       : HD1080p [Bluray]
    Writing library             : x264 core 157 r2935 545de2f
    Encoding settings           : cabac=1 / ref=5 / deblock=1:0:0 / analyse=0x3:0x113 / me=hex / subme=8 / psy=1 / psy_rd=1.00:0.00 / mixed_ref=1 / me_range=16 / chroma_me=1 / trellis=2 / 8x8dct=1 / cqm=0 / deadzone=21,11 / fast_pskip=1 / chroma_qp_offset=-2 / threads=25 / lookahead_threads=4 / sliced_threads=0 / nr=0 / decimate=1 / interlaced=0 / bluray_compat=0 / constrained_intra=0 / bframes=3 / b_pyramid=2 / b_adapt=1 / b_bias=0 / direct=3 / weightb=1 / open_gop=0 / weightp=2 / keyint=240 / keyint_min=24 / scenecut=40 / intra_refresh=0 / rc_lookahead=50 / rc=abr / mbtree=1 / bitrate=3500 / ratetol=1.0 / qcomp=0.60 / qpmin=0 / qpmax=69 / qpstep=4 / vbv_maxrate=62500 / vbv_bufsize=78125 / nal_hrd=none / filler=0 / ip_ratio=1.40 / aq=1:1.00
    Default                     : Yes
    Forced                      : Yes
    Color range                 : Limited
    Color primaries             : BT.709
    Transfer characteristics    : BT.709
    Matrix coefficients         : BT.709

    Audio #1
    ID                          : 2
    Format                      : AC-3
    Format/Info                 : Audio Coding 3
    Commercial name             : Dolby Digital
    Codec ID                    : A_AC3
    Duration                    : 1 h 35 min
    Bit rate mode               : Constant
    Bit rate                    : 448 kb/s
    Channel(s)                  : 6 channels
    Channel layout              : L R C LFE Ls Rs
    Sampling rate               : 48.0 kHz
    Frame rate                  : 31.250 FPS (1536 SPF)
    Bit depth                   : 16 bits
    Compression mode            : Lossy
    Delay relative to video     : 5 ms
    Stream size                 : 306 MiB (10%)
    Title                       : AC3_5.1_Bluray_Esp
    Language                    : Spanish
    Service kind                : Complete Main
    Default                     : Yes
    Forced                      : Yes

    Audio #2
    ID                          : 3
    Format                      : AC-3
    Format/Info                 : Audio Coding 3
    Commercial name             : Dolby Digital
    Codec ID                    : A_AC3
    Duration                    : 1 h 35 min
    Bit rate mode               : Constant
    Bit rate                    : 448 kb/s
    Channel(s)                  : 6 channels
    Channel layout              : L R C LFE Ls Rs
    Sampling rate               : 48.0 kHz
    Frame rate                  : 31.250 FPS (1536 SPF)
    Bit depth                   : 16 bits
    Compression mode            : Lossy
    Stream size                 : 306 MiB (10%)
    Title                       : AC3_5.1_Bluray_Eng
    Language                    : English
    Service kind                : Complete Main
    Default                     : No
    Forced                      : No

    Text #1
    ID                          : 4
    Format                      : UTF-8
    Codec ID                    : S_TEXT/UTF8
    Codec ID/Info               : UTF-8 Plain Text
    Duration                    : 1 h 28 min
    Bit rate                    : 3 b/s
    Count of elements           : 77
    Stream size                 : 2.05 KiB (0%)
    Title                       : Sub_Forzados
    Language                    : Spanish
    Default                     : Yes
    Forced                      : Yes

    Text #2
    ID                          : 5
    Format                      : UTF-8
    Codec ID                    : S_TEXT/UTF8
    Codec ID/Info               : UTF-8 Plain Text
    Duration                    : 1 h 34 min
    Bit rate                    : 43 b/s
    Count of elements           : 1121
    Stream size                 : 30.4 KiB (0%)
    Title                       : Sub_Esp
    Language                    : Spanish
    Default                     : No
    Forced                      : No

    Text #3
    ID                          : 6
    Format                      : UTF-8
    Codec ID                    : S_TEXT/UTF8
    Codec ID/Info               : UTF-8 Plain Text
    Duration                    : 1 h 35 min
    Bit rate                    : 58 b/s
    Count of elements           : 1368
    Stream size                 : 40.9 KiB (0%)
    Title                       : Sub_Eng
    Language                    : English
    Default                     : No
    Forced                      : No

    Menu
    00:00:00.000                : :Chapter 1
    00:03:11.817                : :Chapter 2
    00:06:49.618                : :Chapter 3
    00:09:27.776                : :Chapter 4
    00:12:27.038                : :Chapter 5
    00:16:24.150                : :Chapter 6
    00:21:57.942                : :Chapter 7
    00:25:21.103                : :Chapter 8
    00:28:00.262                : :Chapter 9
    00:31:21.922                : :Chapter 10
    00:34:46.543                : :Chapter 11
    00:36:08.625                : :Chapter 12
    00:38:23.760                : :Chapter 13
    00:41:56.014                : :Chapter 14
    00:45:40.363                : :Chapter 15
    00:48:03.047                : :Chapter 16
    00:51:50.441                : :Chapter 17
    00:54:05.117                : :Chapter 18
    00:57:05.172                : :Chapter 19
    00:59:52.798                : :Chapter 20
    01:01:37.903                : :Chapter 21
    01:04:01.755                : :Chapter 22
    01:07:31.464                : :Chapter 23
    01:09:25.912                : :Chapter 24
    01:11:48.304                : :Chapter 25
    01:15:59.722                : :Chapter 26
    01:18:34.585                : :Chapter 27
    01:21:39.645                : :Chapter 28
    01:24:07.376                : :Chapter 29
    01:27:48.013                : :Chapter 30
    01:29:22.399                : :Chapter 31
    01:30:49.235                : :Chapter 32

  • Peso: 2.91 GiB

Sinopsis

Descargar Boda Sangrienta (2019) 1080p Latino. Durante su noche de bodas, una novia recibe una extraña invitación de la rica y excéntrica familia de su marido. Todo toma un giro siniestro cuando la obligan a participar en una tradición ancestral, que se convierte en un juego letal en el que tendrá que luchar por la superviviencia.Thriller que dirigen Tyler Gillett (V/H/S) y Matt Bettinelli-Olpin (El heredero del diablo). El filme está protagonizado por Samara Weaving (The Babysitter), Andie MacDowell (La última carcajada), Adam Brody (¡Shazam!), Mark O’Brien (Malos tiempos en El Royale) y Henry Czerny (Heridas abiertas).

Ficha técnica

Video trailer de la película

Enlaces de descarga

Rip de Bluray

Descargar Boda Sangrienta (2019) 1080p Latino




Aportes de DPeliculasHDmega la pass es:dpeliculashdmega.org Aportes de CinemaniaHD la pass es:cinemaniahdd.com
Guardado en : Comedia , HD 1080p , Misterio , Suspenso , Terror

Películas relacionadas

descargar Boda Sangrienta (2019) 1080p Latino 1080p 1080p gratis, Boda Sangrienta (2019) 1080p Latino 1080p mega 1 link, Boda Sangrienta (2019) 1080p Latino 1080p pelicula completa, descargar Boda Sangrienta (2019) 1080p Latino 1080p gratis en mega.

Boda Sangrienta (2019) 1080p Latino pelicula full hd, Boda Sangrienta (2019) 1080p Latino mega latino, Boda Sangrienta (2019) 1080p Latino 4k latino, Boda Sangrienta (2019) 1080p Latino pelicula completa, Boda Sangrienta (2019) 1080p Latino descargar gratis, descargar Boda Sangrienta (2019) 1080p Latino pelicula latino, Boda Sangrienta (2019) 1080p Latino 1 link mega, Boda Sangrienta (2019) 1080p Latino 1 link google drive, Boda Sangrienta (2019) 1080p Latino hd 1080p latino.
Comentarios 0