×

¿Problemas para descargar con Mozilla, EDGE? Deshabilita la opción "Abrir vinculos en una pestaña nueva" tal como lo muestra ésta imagen.

No te preocupes cariño (2022) WEB-DL 1080p Latino

48 vistas

Información de No te preocupes cariño (2022) WEB-DL 1080p Latino

Datos de la película

  • Calidad: WEBDL
  • Audio: Español Latino AC3 5.1 WEB-DL - Ingles AC3 5.1 WEB-DL
  • Subtitulos: Español Latino SRT- FORZADOS SRT
  • Resolución: 1918x802p
  • Formato: MKV
  • Codec: H.264
  • Encoder: Melkor
  • Mediainfo: Clic para Mostrar Datos Ver
  • No Te Preocupes Cariño (2022) WebDL 1080p Latino.mkv
    Format                      : Matroska
    Format version              : Version 4
    File size                   : 6.78 GiB
    Duration                    : 2 h 2 min
    Overall bit rate            : 7 913 kb/s
    Movie name                  : Dont Worry Darling (2022) CinemaniaHDD.Net
    Encoded date                : UTC 2022-10-25 06:53:20
    Writing application         : mkvmerge v56.1.0 ('My Friend') 64-bit
    Writing library             : libebml v1.4.2 + libmatroska v1.6.4
    Attachments                 : CINEMANIAHD.png

    Video
    ID                          : 1
    Format                      : AVC
    Format/Info                 : Advanced Video Codec
    Format profile              : High@L4
    Format settings             : CABAC / 5 Ref Frames
    Format settings, CABAC      : Yes
    Format settings, Reference  : 5 frames
    Codec ID                    : V_MPEG4/ISO/AVC
    Duration                    : 2 h 2 min
    Bit rate                    : 6 695 kb/s
    Width                       : 1 918 pixels
    Height                      : 802 pixels
    Display aspect ratio        : 2.40:1
    Frame rate mode             : Constant
    Frame rate                  : 23.976 (24000/1001) FPS
    Color space                 : YUV
    Chroma subsampling          : 4:2:0
    Bit depth                   : 8 bits
    Scan type                   : Progressive
    Bits/(Pixel*Frame)          : 0.182
    Stream size                 : 5.74 GiB (85%)
    Title                       : Web HD1080p [CinemaniaHDD]
    Default                     : Yes
    Forced                      : Yes
    Color range                 : Limited
    Color primaries             : BT.709
    Transfer characteristics    : BT.709
    Matrix coefficients         : BT.709

    Audio #1
    ID                          : 2
    Format                      : AC-3
    Format/Info                 : Audio Coding 3
    Commercial name             : Dolby Digital
    Codec ID                    : A_AC3
    Duration                    : 2 h 2 min
    Bit rate mode               : Constant
    Bit rate                    : 448 kb/s
    Channel(s)                  : 6 channels
    Channel layout              : L R C LFE Ls Rs
    Sampling rate               : 48.0 kHz
    Frame rate                  : 31.250 FPS (1536 SPF)
    Compression mode            : Lossy
    Stream size                 : 393 MiB (6%)
    Title                       : Español Latino [CinemaniaHDD]
    Language                    : Spanish
    Service kind                : Complete Main
    Default                     : Yes
    Forced                      : Yes

    Audio #2
    ID                          : 3
    Format                      : E-AC-3 JOC
    Format/Info                 : Enhanced AC-3 with Joint Object Coding
    Commercial name             : Dolby Digital Plus with Dolby Atmos
    Codec ID                    : A_EAC3
    Duration                    : 2 h 2 min
    Bit rate mode               : Constant
    Bit rate                    : 768 kb/s
    Channel(s)                  : 6 channels
    Channel layout              : L R C LFE Ls Rs
    Sampling rate               : 48.0 kHz
    Frame rate                  : 31.250 FPS (1536 SPF)
    Compression mode            : Lossy
    Stream size                 : 674 MiB (10%)
    Title                       : Ingles [CinemaniaHDD]
    Language                    : English
    Service kind                : Complete Main
    Default                     : No
    Forced                      : No
    Complexity index            : 16
    Number of dynamic objects   : 15
    Bed channel count           : 1 channel
    Bed channel configuration   : LFE

    Text #1
    ID                          : 4
    Format                      : UTF-8
    Codec ID                    : S_TEXT/UTF8
    Codec ID/Info               : UTF-8 Plain Text
    Duration                    : 1 h 43 min
    Bit rate                    : 1 b/s
    Count of elements           : 36
    Stream size                 : 874 Bytes (0%)
    Title                       : Forzados-SRT [CinemaniaHDD]
    Language                    : Spanish
    Default                     : Yes
    Forced                      : Yes

    Text #2
    ID                          : 5
    Format                      : UTF-8
    Codec ID                    : S_TEXT/UTF8
    Codec ID/Info               : UTF-8 Plain Text
    Duration                    : 2 h 2 min
    Bit rate                    : 48 b/s
    Count of elements           : 1353
    Stream size                 : 43.2 KiB (0%)
    Title                       : Español-SRT [CinemaniaHDD]
    Language                    : Spanish
    Default                     : No
    Forced                      : No

    Text #3
    ID                          : 6
    Format                      : UTF-8
    Codec ID                    : S_TEXT/UTF8
    Codec ID/Info               : UTF-8 Plain Text
    Duration                    : 2 h 0 min
    Bit rate                    : 74 b/s
    Count of elements           : 2020
    Stream size                 : 66.3 KiB (0%)
    Title                       : Ingles-SRT [CinemaniaHDD]
    Language                    : English
    Default                     : No
    Forced                      : No

    Menu
    00:00:00.000                : Chapter 01
    00:09:55.011                : Chapter 02
    00:18:01.081                : Chapter 03
    00:27:59.554                : Chapter 04
    00:35:25.500                : Chapter 05
    00:45:20.136                : Chapter 06
    00:55:13.146                : Chapter 07
    01:04:20.694                : Chapter 08
    01:12:40.193                : Chapter 09
    01:21:07.742                : Chapter 10
    01:30:43.109                : Chapter 11
    01:39:05.737                : Chapter 12
    01:48:33.930                : Chapter 13
    01:55:42.859                : Chapter 14

  • Peso: 6.78 GiB

Sinopsis

Descargar No te preocupes cariño (2022) WEB-DL 1080p Latino. Alice y Jack tienen la suerte de vivir en Victoria, la ciudad experimental de la compañía que alberga a los hombres que trabajan para el Proyecto Victoria, de alto secreto, y a sus familias. La vida es perfecta, con todas las necesidades de los residentes cubiertas por la empresa. Todo lo que piden a cambio es un compromiso incondicional con la causa de Victoria. Pero cuando empiezan a aparecer grietas en su idílica vida, exponiendo destellos de algo mucho más siniestro que se esconde bajo la atractiva fachada, Alice no puede evitar cuestionarse qué están haciendo en Victoria y por qué. ¿Cuánto está dispuesta a perder Alice para sacar a la luz lo que realmente ocurre en el paraíso?

Ficha técnica

Video trailer de la película

Enlaces de descarga

Rip de Bluray

Descargar No te preocupes cariño (2022) WEB-DL 1080p Latino




Aportes de DPeliculasHDmega la pass es:dpeliculashdmega.org Aportes de CinemaniaHD la pass es:cinemaniahdd.com

Películas relacionadas

descargar No te preocupes cariño (2022) WEB-DL 1080p Latino WEBDL 1080p gratis, No te preocupes cariño (2022) WEB-DL 1080p Latino WEBDL mega 1 link, No te preocupes cariño (2022) WEB-DL 1080p Latino WEBDL pelicula completa, descargar No te preocupes cariño (2022) WEB-DL 1080p Latino WEBDL gratis en mega.

No te preocupes cariño (2022) WEB-DL 1080p Latino pelicula full hd, No te preocupes cariño (2022) WEB-DL 1080p Latino mega latino, No te preocupes cariño (2022) WEB-DL 1080p Latino 4k latino, No te preocupes cariño (2022) WEB-DL 1080p Latino pelicula completa, No te preocupes cariño (2022) WEB-DL 1080p Latino descargar gratis, descargar No te preocupes cariño (2022) WEB-DL 1080p Latino pelicula latino, No te preocupes cariño (2022) WEB-DL 1080p Latino 1 link mega, No te preocupes cariño (2022) WEB-DL 1080p Latino 1 link google drive, No te preocupes cariño (2022) WEB-DL 1080p Latino hd 1080p latino.
Comentarios 0