No Sudden Move (2021) HMAX 4K-HDR WEB-DL 2160p Latino

103 vistas
1 estrella2 estrellas3 estrellas4 estrellas5 estrellas (Ninguna valoración todavía)
Cargando...

Información de No Sudden Move (2021) HMAX 4K-HDR WEB-DL 2160p Latino

Datos de la película

  • Calidad: 4K HDR
  • Audio: Español Latino AC3 5.1 WEB-DL - Ingles AC3 5.1 WEB-DL
  • Subtitulos: Español Latino SRT- FORZADOS SRT
  • Resolución: 3840x2160
  • Formato: MKV
  • Codec: H.264
  • Encoder: cinemaniahdd
  • Mediainfo: Clic para Mostrar Datos Ver
  • No Sudden Move (2021) HMAX 4K-HDR WEB-DL 2160p Latino [CNMNHDD].mkv
    Format                      : Matroska
    Format version              : Version 4
    File size                   : 15.0 GiB
    Duration                    : 1 h 55 min
    Overall bit rate            : 18.6 Mb/s
    Movie name                  : No Sudden Move (2021) - CinemaniaHDD.Net
    Encoded date                : UTC 2021-07-01 17:23:41
    Writing application         : mkvmerge v56.1.0 ('My Friend') 64-bit
    Writing library             : libebml v1.4.2 + libmatroska v1.6.4

    Video
    ID                          : 1
    Format                      : HEVC
    Format/Info                 : High Efficiency Video Coding
    Format profile              : Main 10@L5@Main
    HDR format                  : SMPTE ST 2086, HDR10 compatible
    Codec ID                    : V_MPEGH/ISO/HEVC
    Duration                    : 1 h 55 min
    Bit rate                    : 17.9 Mb/s
    Width                       : 3 840 pixels
    Height                      : 2 160 pixels
    Display aspect ratio        : 16:9
    Frame rate mode             : Constant
    Frame rate                  : 23.976 (24000/1001) FPS
    Color space                 : YUV
    Chroma subsampling          : 4:2:0
    Bit depth                   : 10 bits
    Bits/(Pixel*Frame)          : 0.090
    Stream size                 : 14.4 GiB (96%)
    Title                       : CinemaniaHDD
    Writing library             : x265 3.4hy:[Linux][GCC 7.5.0][64 bit] 10bit
    Default                     : Yes
    Forced                      : No
    Color range                 : Limited
    Color primaries             : BT.2020
    Transfer characteristics    : PQ
    Matrix coefficients         : BT.2020 non-constant
    Mastering display color pri : BT.2020
    Mastering display luminance : min: 0.0001 cd/m2, max: 1000 cd/m2
    Maximum Content Light Level : 494 cd/m2
    Maximum Frame-Average Light : 113 cd/m2

    Audio #1
    ID                          : 2
    Format                      : AC-3
    Format/Info                 : Audio Coding 3
    Commercial name             : Dolby Digital
    Codec ID                    : A_AC3
    Duration                    : 1 h 55 min
    Bit rate mode               : Constant
    Bit rate                    : 384 kb/s
    Channel(s)                  : 6 channels
    Channel layout              : L R C LFE Ls Rs
    Sampling rate               : 48.0 kHz
    Frame rate                  : 31.250 FPS (1536 SPF)
    Compression mode            : Lossy
    Stream size                 : 316 MiB (2%)
    Title                       : Español latino [CinemaniaHDD]
    Language                    : Spanish
    Service kind                : Complete Main
    Default                     : Yes
    Forced                      : No

    Audio #2
    ID                          : 3
    Format                      : AC-3
    Format/Info                 : Audio Coding 3
    Commercial name             : Dolby Digital
    Codec ID                    : A_AC3
    Duration                    : 1 h 55 min
    Bit rate mode               : Constant
    Bit rate                    : 384 kb/s
    Channel(s)                  : 6 channels
    Channel layout              : L R C LFE Ls Rs
    Sampling rate               : 48.0 kHz
    Frame rate                  : 31.250 FPS (1536 SPF)
    Compression mode            : Lossy
    Stream size                 : 316 MiB (2%)
    Title                       : Inglés [CinemaniaHDD]
    Language                    : English
    Service kind                : Complete Main
    Default                     : No
    Forced                      : No

    Text #1
    ID                          : 4
    Format                      : UTF-8
    Codec ID                    : S_TEXT/UTF8
    Codec ID/Info               : UTF-8 Plain Text
    Duration                    : 1 h 52 min
    Bit rate                    : 0 b/s
    Count of elements           : 9
    Stream size                 : 439 Bytes (0%)
    Title                       : Forzados [CinemaniaHDD]
    Language                    : Spanish
    Default                     : Yes
    Forced                      : Yes

    Text #2
    ID                          : 5
    Format                      : UTF-8
    Codec ID                    : S_TEXT/UTF8
    Codec ID/Info               : UTF-8 Plain Text
    Duration                    : 1 h 52 min
    Bit rate                    : 63 b/s
    Count of elements           : 1701
    Stream size                 : 52.4 KiB (0%)
    Title                       : Español latino [CC] [CinemaniaHDD]
    Language                    : Spanish
    Default                     : No
    Forced                      : No

    Text #3
    ID                          : 6
    Format                      : UTF-8
    Codec ID                    : S_TEXT/UTF8
    Codec ID/Info               : UTF-8 Plain Text
    Duration                    : 1 h 54 min
    Bit rate                    : 65 b/s
    Count of elements           : 1646
    Stream size                 : 55.0 KiB (0%)
    Title                       : Inglés [CC] [CinemaniaHDD]
    Language                    : English
    Default                     : No
    Forced                      : No

     

  • Peso: 15.0 GiB

Sinopsis

Un grupo de delincuentes se reúne en circunstancias misteriosas y tienen que trabajar juntos para descubrir lo que realmente está sucediendo cuando un simple trabajo se desvía por completo.

Ficha técnica

Video trailer de la película

Enlaces de descarga

Rip de Bluray

Descargar No Sudden Move (2021) HMAX 4K-HDR WEB-DL 2160p Latino




Aportes de DPeliculasHDmega la pass es:dpeliculashdmega.org Aportes de CinemaniaHD la pass es:cinemaniahdd.com
Guardado en : 4K HDR , 4K UHD , Crimen , Drama , Misterio , Suspenso

Películas relacionadas

No Sudden Move (2021) HMAX 4K-HDR WEB-DL 2160p Latino pelicula full hd, No Sudden Move (2021) HMAX 4K-HDR WEB-DL 2160p Latino mega latino, No Sudden Move (2021) HMAX 4K-HDR WEB-DL 2160p Latino 4k latino, No Sudden Move (2021) HMAX 4K-HDR WEB-DL 2160p Latino pelicula completa, No Sudden Move (2021) HMAX 4K-HDR WEB-DL 2160p Latino descargar gratis, descargar No Sudden Move (2021) HMAX 4K-HDR WEB-DL 2160p Latino pelicula latino, No Sudden Move (2021) HMAX 4K-HDR WEB-DL 2160p Latino 1 link mega, No Sudden Move (2021) HMAX 4K-HDR WEB-DL 2160p Latino 1 link google drive, No Sudden Move (2021) HMAX 4K-HDR WEB-DL 2160p Latino hd 1080p latino.
Comentarios 1