×

¿Problemas para descargar con Mozilla, EDGE? Deshabilita la opción "Abrir vinculos en una pestaña nueva" tal como lo muestra ésta imagen.

Amigos con derechos (2011) 1080p Latino

204 vistas

Información de Amigos con derechos (2011) 1080p Latino

Datos de la película

  • Calidad: 1080p
  • Audio: Español Latino AC3 5.1 BLURAY - Ingles AC3 5.1 BLURAY
  • Subtitulos: Español Latino SRT - Ingles SRT
  • Resolución: 1920x800p
  • Formato: MKV
  • Codec: H.264
  • Encoder: CinefiloCool
  • Mediainfo: Clic para Mostrar Datos Ver
  • Amigos Con Derechos (2011) 1080p Latino-CMHDD.mkv
    Format                      : Matroska
    Format version              : Version 4
    File size                   : 3.84 GiB
    Duration                    : 1 h 47 min
    Overall bit rate            : 5 088 kb/s
    Movie name                  : No Strings Attached (2011) CinemaniaHDD.Net
    Encoded date                : UTC 2021-02-12 04:56:06
    Writing application         : mkvmerge v51.0.0 ('I Wish') 64-bit
    Writing library             : libebml v1.4.0 + libmatroska v1.6.2
    Attachments                 : CINEMANIAHD.png

    Video
    ID                          : 1
    Format                      : AVC
    Format/Info                 : Advanced Video Codec
    Format profile              : High@L4.1
    Format settings             : CABAC / 5 Ref Frames
    Format settings, CABAC      : Yes
    Format settings, Reference  : 5 frames
    Codec ID                    : V_MPEG4/ISO/AVC
    Duration                    : 1 h 47 min
    Bit rate                    : 4 000 kb/s
    Width                       : 1 920 pixels
    Height                      : 800 pixels
    Display aspect ratio        : 2.40:1
    Frame rate mode             : Constant
    Frame rate                  : 23.976 (24000/1001) FPS
    Color space                 : YUV
    Chroma subsampling          : 4:2:0
    Bit depth                   : 8 bits
    Scan type                   : Progressive
    Bits/(Pixel*Frame)          : 0.109
    Stream size                 : 3.02 GiB (79%)
    Title                       : HD1080p [CinemaniaHDD]
    Writing library             : x264 core 157 r2935 545de2f
    Encoding settings           : cabac=1 / ref=5 / deblock=1:-1:-1 / analyse=0x3:0x133 / me=umh / subme=9 / psy=1 / psy_rd=1.00:0.15 / mixed_ref=1 / me_range=16 / chroma_me=1 / trellis=2 / 8x8dct=1 / cqm=0 / deadzone=21,11 / fast_pskip=1 / chroma_qp_offset=-3 / threads=24 / lookahead_threads=2 / sliced_threads=0 / nr=0 / decimate=1 / interlaced=0 / bluray_compat=0 / constrained_intra=0 / bframes=3 / b_pyramid=2 / b_adapt=2 / b_bias=0 / direct=3 / weightb=1 / open_gop=0 / weightp=2 / keyint=240 / keyint_min=24 / scenecut=40 / intra_refresh=0 / rc_lookahead=60 / rc=2pass / mbtree=1 / bitrate=4000 / ratetol=1.0 / qcomp=0.60 / qpmin=0 / qpmax=69 / qpstep=4 / cplxblur=20.0 / qblur=0.5 / vbv_maxrate=62500 / vbv_bufsize=78125 / nal_hrd=none / filler=0 / ip_ratio=1.40 / aq=1:1.00
    Default                     : Yes
    Forced                      : Yes
    Color range                 : Limited
    Color primaries             : BT.709
    Transfer characteristics    : BT.709
    Matrix coefficients         : BT.709

    Audio #1
    ID                          : 2
    ID in the original source m : 4354 (0x1102)
    Format                      : AC-3
    Format/Info                 : Audio Coding 3
    Commercial name             : Dolby Digital
    Codec ID                    : A_AC3
    Duration                    : 1 h 47 min
    Bit rate mode               : Constant
    Bit rate                    : 640 kb/s
    Channel(s)                  : 6 channels
    Channel layout              : L R C LFE Ls Rs
    Sampling rate               : 48.0 kHz
    Frame rate                  : 31.250 FPS (1536 SPF)
    Compression mode            : Lossy
    Delay relative to video     : -5 ms
    Stream size                 : 494 MiB (13%)
    Title                       : Español Latino [CinemaniaHDD]
    Language                    : Spanish
    Service kind                : Complete Main
    Default                     : Yes
    Forced                      : Yes
    Original source medium      : Blu-ray

    Audio #2
    ID                          : 3
    Format                      : AC-3
    Format/Info                 : Audio Coding 3
    Commercial name             : Dolby Digital
    Codec ID                    : A_AC3
    Duration                    : 1 h 47 min
    Bit rate mode               : Constant
    Bit rate                    : 448 kb/s
    Channel(s)                  : 6 channels
    Channel layout              : L R C LFE Ls Rs
    Sampling rate               : 48.0 kHz
    Frame rate                  : 31.250 FPS (1536 SPF)
    Compression mode            : Lossy
    Delay relative to video     : -5 ms
    Stream size                 : 346 MiB (9%)
    Title                       : Ingles [CinemaniaHDD]
    Language                    : English
    Service kind                : Complete Main
    Default                     : No
    Forced                      : No

    Text #1
    ID                          : 4
    Format                      : UTF-8
    Codec ID                    : S_TEXT/UTF8
    Codec ID/Info               : UTF-8 Plain Text
    Duration                    : 1 h 41 min
    Bit rate                    : 0 b/s
    Count of elements           : 12
    Stream size                 : 163 Bytes (0%)
    Title                       : Forzados-SRT [CinemaniaHDD]
    Language                    : Spanish
    Default                     : Yes
    Forced                      : Yes

    Text #2
    ID                          : 5
    Format                      : UTF-8
    Codec ID                    : S_TEXT/UTF8
    Codec ID/Info               : UTF-8 Plain Text
    Duration                    : 1 h 41 min
    Bit rate                    : 56 b/s
    Count of elements           : 1403
    Stream size                 : 41.9 KiB (0%)
    Title                       : Español-SRT [CinemaniaHDD]
    Language                    : Spanish
    Default                     : No
    Forced                      : No

    Text #3
    ID                          : 6
    Format                      : UTF-8
    Codec ID                    : S_TEXT/UTF8
    Codec ID/Info               : UTF-8 Plain Text
    Duration                    : 1 h 41 min
    Bit rate                    : 66 b/s
    Count of elements           : 1493
    Stream size                 : 49.2 KiB (0%)
    Title                       : Ingles-SRT [CinemaniaHDD]
    Language                    : English
    Default                     : No
    Forced                      : No

    Menu
    00:00:00.000                : en:Chapter 01
    00:05:32.206                : en:Chapter 02
    00:10:04.395                : en:Chapter 03
    00:17:38.307                : en:Chapter 04
    00:25:59.391                : en:Chapter 05
    00:34:34.280                : en:Chapter 06
    00:42:40.182                : en:Chapter 07
    00:48:48.467                : en:Chapter 08
    00:57:07.382                : en:Chapter 09
    01:05:35.514                : en:Chapter 10
    01:13:35.786                : en:Chapter 11
    01:18:54.062                : en:Chapter 12
    01:25:37.882                : en:Chapter 13
    01:31:12.842                : en:Chapter 14
    01:38:38.495                : en:Chapter 15

  • Peso: 3.84 GiB

Sinopsis

Descargar Amigos con derechos (2011) 1080p Latino. Emma (Natalie Portman) y Adam (Ashton Kutcher) son, desde hace mucho tiempo, dos buenos amigos, pero casi arruinan su relación por pasar una noche juntos. Deciden, entonces, preservar su amistad por encima de todo, aunque tengan relaciones íntimas. Muy pronto descubrirán que es muy difícil mantener una relación estrictamente física sin contraer compromiso alguno y al margen de los sentimientos

Ficha técnica

Video trailer de la película

Enlaces de descarga

Rip de Bluray

Descargar Amigos con derechos (2011) 1080p Latino




Aportes de DPeliculasHDmega la pass es:dpeliculashdmega.org Aportes de CinemaniaHD la pass es:cinemaniahdd.com
Guardado en : Comedia , HD 1080p , Romance

Películas relacionadas

  • Paratemporal (2019) HD 1080p Latino

    Paratemporal (2019) HD 1080p Latino

    2020
    Paratemporal (2019) HD 1080p Latino

    1h 42m 2020

    Descargar Paratemporal (2019) HD 1080p Latino. Dos paramédicos de Nueva Orleans ven cómo sus vidas...

    Director: Sandy Parker

    Género: Ciencia ficción

    Actores: Walker Babington

  • Emergency (2022) AMZN WEB-DL 1080p Latino

    Emergency (2022) AMZN WEB-DL 1080p Latino

    2022
    Emergency (2022) AMZN WEB-DL 1080p Latino

    1h 45m 2022

    Listos para una noche legendaria de fiestas, tres estudiantes universitarios deben sopesar...

    Director: Carey Williams

    Género: Comedia

    Actores: Sebastian Chacon

  • El Tiempo Es Ahora (2022) AMZN Web-DL 1080p Latino

    El Tiempo Es Ahora (2022) AMZN Web-DL 1080p Latino

    2021
    El Tiempo Es Ahora (2022) AMZN Web-DL 1080p Latino

    1h 48m 2021

    Descargar El Tiempo Es Ahora (2022) AMZN Web-DL 1080p Latino. Un accidente obliga a Vivien y Royan a...

    Director: Elisa Amoruso

    Género: Drama

    Actores: Sebastiano Pigazzi

  • Corazón de Fuego (2022) AMZN Web-DL 1080p Latino

    Corazón de Fuego (2022) AMZN Web-DL 1080p Latino

    2022
    Corazón de Fuego (2022) AMZN Web-DL 1080p Latino

    1h 32m 2022

    Descargar Corazón de Fuego (2022) AMZN Web-DL 1080p Latino. Georgia Nolan sueña con ser la primera...

    Director: Theodore Anthony Lee Ty

    Género: Animación

    Actores: William Shatner

Amigos con derechos (2011) 1080p Latino pelicula full hd, Amigos con derechos (2011) 1080p Latino mega latino, Amigos con derechos (2011) 1080p Latino 4k latino, Amigos con derechos (2011) 1080p Latino pelicula completa, Amigos con derechos (2011) 1080p Latino descargar gratis, descargar Amigos con derechos (2011) 1080p Latino pelicula latino, Amigos con derechos (2011) 1080p Latino 1 link mega, Amigos con derechos (2011) 1080p Latino 1 link google drive, Amigos con derechos (2011) 1080p Latino hd 1080p latino.
Comentarios 0