×

¿Problemas para descargar con Mozilla, EDGE? Deshabilita la opción "Abrir vinculos en una pestaña nueva" tal como lo muestra ésta imagen.

No Soy tu Enemigo (2019) REMUX 1080p Latino

105 vistas

Información de No Soy tu Enemigo (2019) REMUX 1080p Latino

Datos de la película

  • Calidad: Full 1080p
  • Audio: Español Latino AC3 5.1 WEB-DL - Ingles DTS 5.1 BLURAY
  • Subtitulos: Español Latino PGS - Ingles PGS
  • Resolución: 1920x1080p
  • Formato: MKV
  • Codec: H.264
  • Encoder: Melkor
  • Mediainfo: Clic para Mostrar Datos Ver
  • No Soy tu Enemigo (2019) REMUX 1080p Latino.mkv
    Format                      : Matroska
    Format version              : Version 4
    File size                   : 36.6 GiB
    Duration                    : 2 h 13 min
    Overall bit rate mode       : Variable
    Overall bit rate            : 39.2 Mb/s
    Movie name                  : The Best of Enemies (2019) CinemaniaHDD.Net
    Encoded date                : UTC 2021-09-09 04:44:14
    Writing application         : mkvmerge v56.1.0 ('My Friend') 64-bit
    Writing library             : libebml v1.4.2 + libmatroska v1.6.4
    Attachments                 : CINEMANIAHD.png

    Video
    ID                          : 1
    Format                      : AVC
    Format/Info                 : Advanced Video Codec
    Format profile              : High@L4.1
    Format settings             : CABAC / 4 Ref Frames
    Format settings, CABAC      : Yes
    Format settings, Reference  : 4 frames
    Format settings, GOP        : M=3, N=12
    Codec ID                    : V_MPEG4/ISO/AVC
    Duration                    : 2 h 13 min
    Bit rate mode               : Variable
    Bit rate                    : 34.7 Mb/s
    Maximum bit rate            : 40.0 Mb/s
    Width                       : 1 920 pixels
    Height                      : 1 080 pixels
    Display aspect ratio        : 16:9
    Frame rate mode             : Constant
    Frame rate                  : 23.976 (24000/1001) FPS
    Color space                 : YUV
    Chroma subsampling          : 4:2:0
    Bit depth                   : 8 bits
    Scan type                   : Progressive
    Bits/(Pixel*Frame)          : 0.699
    Stream size                 : 32.5 GiB (89%)
    Title                       : REMUX HD1080p [CinemaniaHDD]
    Language                    : English
    Default                     : Yes
    Forced                      : Yes

    Audio #1
    ID                          : 2
    Format                      : AC-3
    Format/Info                 : Audio Coding 3
    Commercial name             : Dolby Digital
    Codec ID                    : A_AC3
    Duration                    : 2 h 13 min
    Bit rate mode               : Constant
    Bit rate                    : 640 kb/s
    Channel(s)                  : 6 channels
    Channel layout              : L R C LFE Ls Rs
    Sampling rate               : 48.0 kHz
    Frame rate                  : 31.250 FPS (1536 SPF)
    Compression mode            : Lossy
    Stream size                 : 612 MiB (2%)
    Title                       : Español Latino AC3 [CinemaniaHDD]
    Language                    : Spanish
    Service kind                : Complete Main
    Default                     : Yes
    Forced                      : Yes

    Audio #2
    ID                          : 3
    Format                      : DTS XLL
    Format/Info                 : Digital Theater Systems
    Commercial name             : DTS-HD Master Audio
    Codec ID                    : A_DTS
    Duration                    : 2 h 13 min
    Bit rate mode               : Variable
    Bit rate                    : 3 163 kb/s
    Channel(s)                  : 6 channels
    Channel layout              : C L R Ls Rs LFE
    Sampling rate               : 48.0 kHz
    Frame rate                  : 93.750 FPS (512 SPF)
    Bit depth                   : 24 bits
    Compression mode            : Lossless
    Stream size                 : 2.96 GiB (8%)
    Title                       : Ingles [CinemaniaHDD]
    Language                    : English
    Default                     : No
    Forced                      : No

    Audio #3
    ID                          : 4
    Format                      : E-AC-3
    Format/Info                 : Enhanced AC-3
    Commercial name             : Dolby Digital Plus
    Codec ID                    : A_EAC3
    Duration                    : 2 h 13 min
    Bit rate mode               : Constant
    Bit rate                    : 640 kb/s
    Channel(s)                  : 6 channels
    Channel layout              : L R C LFE Ls Rs
    Sampling rate               : 48.0 kHz
    Frame rate                  : 31.250 FPS (1536 SPF)
    Compression mode            : Lossy
    Delay relative to video     : 12 s 981 ms
    Stream size                 : 611 MiB (2%)
    Title                       : Español Latino EAC3 [CinemaniaHDD]
    Language                    : Spanish
    Service kind                : Complete Main
    Default                     : No
    Forced                      : No

    Text #1
    ID                          : 5
    Format                      : PGS
    Muxing mode                 : zlib
    Codec ID                    : S_HDMV/PGS
    Codec ID/Info               : Picture based subtitle format used on BDs/HD-DVDs
    Duration                    : 2 h 12 min
    Bit rate                    : 30.9 kb/s
    Count of elements           : 3143
    Stream size                 : 29.3 MiB (0%)
    Title                       : Español-PGS [CinemaniaHDD]
    Language                    : Spanish
    Default                     : No
    Forced                      : No

    Text #2
    ID                          : 6
    Format                      : PGS
    Muxing mode                 : zlib
    Codec ID                    : S_HDMV/PGS
    Codec ID/Info               : Picture based subtitle format used on BDs/HD-DVDs
    Duration                    : 2 h 6 min
    Bit rate                    : 42.8 kb/s
    Count of elements           : 3450
    Stream size                 : 38.6 MiB (0%)
    Title                       : Ingles-PGS [CinemaniaHDD]
    Language                    : English
    Default                     : No
    Forced                      : No

    Text #3
    ID                          : 7
    Format                      : UTF-8
    Codec ID                    : S_TEXT/UTF8
    Codec ID/Info               : UTF-8 Plain Text
    Duration                    : 2 h 7 min
    Bit rate                    : 1 b/s
    Count of elements           : 45
    Stream size                 : 1.01 KiB (0%)
    Title                       : Forzados-SRT [CinemaniaHDD]
    Language                    : Spanish
    Default                     : Yes
    Forced                      : Yes

    Text #4
    ID                          : 8
    Format                      : UTF-8
    Codec ID                    : S_TEXT/UTF8
    Codec ID/Info               : UTF-8 Plain Text
    Duration                    : 2 h 12 min
    Bit rate                    : 57 b/s
    Count of elements           : 1586
    Stream size                 : 55.9 KiB (0%)
    Title                       : Español-SRT [CinemaniaHDD]
    Language                    : Spanish
    Default                     : No
    Forced                      : No

    Menu
    00:00:00.000                : Chapter 1
    00:04:28.393                : Chapter 2
    00:10:38.388                : Chapter 3
    00:15:57.915                : Chapter 4
    00:18:57.386                : Chapter 5
    00:25:12.219                : Chapter 6
    00:32:07.759                : Chapter 7
    00:40:08.990                : Chapter 8
    00:46:43.426                : Chapter 9
    00:52:23.724                : Chapter 10
    00:57:22.105                : Chapter 11
    01:03:12.998                : Chapter 12
    01:13:21.939                : Chapter 13
    01:22:00.290                : Chapter 14
    01:28:30.472                : Chapter 15
    01:35:46.658                : Chapter 16
    01:43:12.770                : Chapter 17
    01:51:25.721                : Chapter 18
    01:56:47.959                : Chapter 19
    02:04:38.471                : Chapter 20

  • Peso: 36.6 GiB

Sinopsis

Descargar No Soy tu Enemigo (2019) REMUX 1080p Latino. La amistad entre Ann Atwater (Henson), un activista negro sin pelos en la lengua, y Clairborne Paul Ellis (Rockwell), un miembro de alto rango del Ku Klux Klan, es el foco de atención de «The Best of Enemies». Ambientada en los años 60, justo en el momento álgido del movimiento por los derechos civiles que sacudió Norteamérica, ambos personajes entablan una curiosa relación.

Ficha técnica

Video trailer de la película

Enlaces de descarga

Rip de Bluray

Descargar No Soy tu Enemigo (2019) REMUX 1080p Latino




Aportes de DPeliculasHDmega la pass es:dpeliculashdmega.org Aportes de CinemaniaHD la pass es:cinemaniahdd.com
Guardado en : Drama , Historia , Remux

Películas relacionadas

  • Ajin: Semi-Humano (2017) REMUX 1080p Latino

    Ajin: Semi-Humano (2017) REMUX 1080p Latino

    2017
    Ajin: Semi-Humano (2017) REMUX 1080p Latino

    1h 50m 2017

    Descargar Ajin: Semi-Humano (2017) REMUX 1080p Latino. En el manga original, aparece una persona inmortal...

    Director: Toru Yamamoto

    Género: Acción

    Actores: Yuki Yamada

  • Zola (2020) REMUX 1080p Latino

    Zola (2020) REMUX 1080p Latino

    2020
    Zola (2020) REMUX 1080p Latino

    1h 26m 2020

    Descargar Zola (2020) REMUX 1080p Latino. Una camarera accede a acompañar a una bailarina exótica,...

    Director: Sheri Davani

    Género: Comedia

    Actores: Ts Madison

  • Hocus Pocus: Abracadabra (1993) REMUX 1080p Latino

    Hocus Pocus: Abracadabra (1993) REMUX 1080p Latino

    1993
    Hocus Pocus: Abracadabra (1993) REMUX 1080p Latino

    1h 36m 1993

    Descargar Hocus Pocus: Abracadabra (1993) REMUX 1080p Latino. Tres brujas del siglo XII son invocadas...

    Director: Kenny Ortega

    Género: Comedia

    Actores: Vinessa Shaw

descargar No Soy tu Enemigo (2019) REMUX 1080p Latino Full 1080p 1080p gratis, No Soy tu Enemigo (2019) REMUX 1080p Latino Full 1080p mega 1 link, No Soy tu Enemigo (2019) REMUX 1080p Latino Full 1080p pelicula completa, descargar No Soy tu Enemigo (2019) REMUX 1080p Latino Full 1080p gratis en mega.

No Soy tu Enemigo (2019) REMUX 1080p Latino pelicula full hd, No Soy tu Enemigo (2019) REMUX 1080p Latino mega latino, No Soy tu Enemigo (2019) REMUX 1080p Latino 4k latino, No Soy tu Enemigo (2019) REMUX 1080p Latino pelicula completa, No Soy tu Enemigo (2019) REMUX 1080p Latino descargar gratis, descargar No Soy tu Enemigo (2019) REMUX 1080p Latino pelicula latino, No Soy tu Enemigo (2019) REMUX 1080p Latino 1 link mega, No Soy tu Enemigo (2019) REMUX 1080p Latino 1 link google drive, No Soy tu Enemigo (2019) REMUX 1080p Latino hd 1080p latino.
Comentarios 0