×

¿Problemas para descargar con Mozilla, EDGE? Deshabilita la opción "Abrir vinculos en una pestaña nueva" tal como lo muestra ésta imagen.

No Soy tu Enemigo (2019) PLACEBO Full HD 1080p Latino

166 vistas

Información de No Soy tu Enemigo (2019) PLACEBO Full HD 1080p Latino

Datos de la película

  • Calidad: Full 1080p
  • Audio: Español Latino AC3 5.1 WEB-DL - Ingles DTS 5.1 BLURAY
  • Subtitulos: Español Latino PGS - Ingles PGS
  • Resolución: 1920x1080p
  • Formato: MKV
  • Codec: H.264
  • Encoder: Melkor
  • Mediainfo: Clic para Mostrar Datos Ver
  • No Soy tu Enemigo (2019) PLACEBO 1080p Latino.mkv
    Format                      : Matroska
    Format version              : Version 4
    File size                   : 4.92 GiB
    Duration                    : 2 h 13 min
    Overall bit rate            : 5 263 kb/s
    Movie name                  : The Best of Enemies (2019) CinemaniaHDD.Net
    Encoded date                : UTC 2021-09-09 16:53:11
    Writing application         : mkvmerge v56.1.0 ('My Friend') 64-bit
    Writing library             : libebml v1.4.2 + libmatroska v1.6.4
    Attachments                 : CINEMANIAHD.png

    Video
    ID                          : 1
    Format                      : AVC
    Format/Info                 : Advanced Video Codec
    Format profile              : High@L4.1
    Format settings             : CABAC / 4 Ref Frames
    Format settings, CABAC      : Yes
    Format settings, Reference  : 4 frames
    Codec ID                    : V_MPEG4/ISO/AVC
    Duration                    : 2 h 13 min
    Bit rate                    : 2 451 kb/s
    Width                       : 1 920 pixels
    Height                      : 1 080 pixels
    Display aspect ratio        : 16:9
    Frame rate mode             : Constant
    Frame rate                  : 23.976 (24000/1001) FPS
    Color space                 : YUV
    Chroma subsampling          : 4:2:0
    Bit depth                   : 8 bits
    Scan type                   : Progressive
    Bits/(Pixel*Frame)          : 0.049
    Stream size                 : 2.29 GiB (47%)
    Title                       : Full HD1080p [CinemaniaHDD]
    Writing library             : x264 core 163 r3059 b684ebe0
    Encoding settings           : cabac=1 / ref=4 / deblock=1:0:0 / analyse=0x3:0x133 / me=tesa / subme=11 / psy=1 / psy_rd=1.00:0.00 / mixed_ref=1 / me_range=24 / chroma_me=1 / trellis=2 / 8x8dct=1 / cqm=0 / deadzone=21,11 / fast_pskip=0 / chroma_qp_offset=-2 / threads=24 / lookahead_threads=6 / sliced_threads=0 / nr=0 / decimate=1 / interlaced=0 / bluray_compat=0 / constrained_intra=0 / bframes=16 / b_pyramid=2 / b_adapt=2 / b_bias=0 / direct=3 / weightb=1 / open_gop=0 / weightp=2 / keyint=240 / keyint_min=24 / scenecut=40 / intra_refresh=0 / rc_lookahead=60 / rc=crf / mbtree=1 / crf=20.0 / qcomp=0.60 / qpmin=0 / qpmax=69 / qpstep=4 / vbv_maxrate=62500 / vbv_bufsize=78125 / crf_max=0.0 / nal_hrd=none / filler=0 / ip_ratio=1.40 / aq=1:1.00
    Default                     : Yes
    Forced                      : Yes
    Color range                 : Limited
    Color primaries             : BT.709
    Transfer characteristics    : BT.709
    Matrix coefficients         : BT.709

    Audio #1
    ID                          : 2
    Format                      : AC-3
    Format/Info                 : Audio Coding 3
    Commercial name             : Dolby Digital
    Codec ID                    : A_AC3
    Duration                    : 2 h 13 min
    Bit rate mode               : Constant
    Bit rate                    : 640 kb/s
    Channel(s)                  : 6 channels
    Channel layout              : L R C LFE Ls Rs
    Sampling rate               : 48.0 kHz
    Frame rate                  : 31.250 FPS (1536 SPF)
    Compression mode            : Lossy
    Stream size                 : 612 MiB (12%)
    Title                       : Español Latino AC3 [CinemaniaHDD]
    Language                    : Spanish
    Service kind                : Complete Main
    Default                     : Yes
    Forced                      : Yes

    Audio #2
    ID                          : 3
    Format                      : DTS
    Format/Info                 : Digital Theater Systems
    Codec ID                    : A_DTS
    Duration                    : 2 h 13 min
    Bit rate mode               : Constant
    Bit rate                    : 1 509 kb/s
    Channel(s)                  : 6 channels
    Channel layout              : C L R Ls Rs LFE
    Sampling rate               : 48.0 kHz
    Frame rate                  : 93.750 FPS (512 SPF)
    Bit depth                   : 24 bits
    Compression mode            : Lossy
    Stream size                 : 1.41 GiB (29%)
    Title                       : Ingles [CinemaniaHDD
    Language                    : English
    Default                     : No
    Forced                      : No

    Audio #3
    ID                          : 4
    Format                      : E-AC-3
    Format/Info                 : Enhanced AC-3
    Commercial name             : Dolby Digital Plus
    Codec ID                    : A_EAC3
    Duration                    : 2 h 13 min
    Bit rate mode               : Constant
    Bit rate                    : 640 kb/s
    Channel(s)                  : 6 channels
    Channel layout              : L R C LFE Ls Rs
    Sampling rate               : 48.0 kHz
    Frame rate                  : 31.250 FPS (1536 SPF)
    Compression mode            : Lossy
    Delay relative to video     : 12 s 981 ms
    Stream size                 : 611 MiB (12%)
    Title                       : Español Latino EAC3 [CinemaniaHDD]
    Language                    : Spanish
    Service kind                : Complete Main
    Default                     : No
    Forced                      : No

    Text #1
    ID                          : 5
    Format                      : PGS
    Muxing mode                 : zlib
    Codec ID                    : S_HDMV/PGS
    Codec ID/Info               : Picture based subtitle format used on BDs/HD-DVDs
    Duration                    : 2 h 12 min
    Bit rate                    : 30.9 kb/s
    Count of elements           : 3143
    Stream size                 : 29.3 MiB (1%)
    Title                       : Español-PGS [CinemaniaHDD]
    Language                    : Spanish
    Default                     : No
    Forced                      : No

    Text #2
    ID                          : 6
    Format                      : PGS
    Muxing mode                 : zlib
    Codec ID                    : S_HDMV/PGS
    Codec ID/Info               : Picture based subtitle format used on BDs/HD-DVDs
    Duration                    : 2 h 6 min
    Bit rate                    : 42.8 kb/s
    Count of elements           : 3450
    Stream size                 : 38.6 MiB (1%)
    Title                       : Ingles-PGS [CinemaniaHDD]
    Language                    : English
    Default                     : No
    Forced                      : No

    Text #3
    ID                          : 7
    Format                      : UTF-8
    Codec ID                    : S_TEXT/UTF8
    Codec ID/Info               : UTF-8 Plain Text
    Duration                    : 2 h 7 min
    Bit rate                    : 1 b/s
    Count of elements           : 45
    Stream size                 : 1.01 KiB (0%)
    Title                       : Forzados-SRT [CinemaniaHDD]
    Language                    : Spanish
    Default                     : Yes
    Forced                      : Yes

    Text #4
    ID                          : 8
    Format                      : UTF-8
    Codec ID                    : S_TEXT/UTF8
    Codec ID/Info               : UTF-8 Plain Text
    Duration                    : 2 h 12 min
    Bit rate                    : 57 b/s
    Count of elements           : 1586
    Stream size                 : 55.9 KiB (0%)
    Title                       : Español-SRT [CinemaniaHDD]
    Language                    : Spanish
    Default                     : No
    Forced                      : No

    Menu
    00:00:00.000                : Chapter 1
    00:04:28.393                : Chapter 2
    00:10:38.388                : Chapter 3
    00:15:57.915                : Chapter 4
    00:18:57.386                : Chapter 5
    00:25:12.219                : Chapter 6
    00:32:07.759                : Chapter 7
    00:40:08.990                : Chapter 8
    00:46:43.426                : Chapter 9
    00:52:23.724                : Chapter 10
    00:57:22.105                : Chapter 11
    01:03:12.998                : Chapter 12
    01:13:21.939                : Chapter 13
    01:22:00.290                : Chapter 14
    01:28:30.472                : Chapter 15
    01:35:46.658                : Chapter 16
    01:43:12.770                : Chapter 17
    01:51:25.721                : Chapter 18
    01:56:47.959                : Chapter 19
    02:04:38.471                : Chapter 20

  • Peso: 4.92 GiB

Sinopsis

Descargar No Soy tu Enemigo (2019) PLACEBO Full HD 1080p Latino. La amistad entre Ann Atwater (Henson), un activista negro sin pelos en la lengua, y Clairborne Paul Ellis (Rockwell), un miembro de alto rango del Ku Klux Klan, es el foco de atención de «The Best of Enemies». Ambientada en los años 60, justo en el momento álgido del movimiento por los derechos civiles que sacudió Norteamérica, ambos personajes entablan una curiosa relación.

Ficha técnica

Video trailer de la película

Enlaces de descarga

Rip de Bluray

Descargar No Soy tu Enemigo (2019) PLACEBO Full HD 1080p Latino




Aportes de DPeliculasHDmega la pass es:dpeliculashdmega.org Aportes de CinemaniaHD la pass es:cinemaniahdd.com

Películas relacionadas

descargar No Soy tu Enemigo (2019) PLACEBO Full HD 1080p Latino Full 1080p 1080p gratis, No Soy tu Enemigo (2019) PLACEBO Full HD 1080p Latino Full 1080p mega 1 link, No Soy tu Enemigo (2019) PLACEBO Full HD 1080p Latino Full 1080p pelicula completa, descargar No Soy tu Enemigo (2019) PLACEBO Full HD 1080p Latino Full 1080p gratis en mega.

No Soy tu Enemigo (2019) PLACEBO Full HD 1080p Latino pelicula full hd, No Soy tu Enemigo (2019) PLACEBO Full HD 1080p Latino mega latino, No Soy tu Enemigo (2019) PLACEBO Full HD 1080p Latino 4k latino, No Soy tu Enemigo (2019) PLACEBO Full HD 1080p Latino pelicula completa, No Soy tu Enemigo (2019) PLACEBO Full HD 1080p Latino descargar gratis, descargar No Soy tu Enemigo (2019) PLACEBO Full HD 1080p Latino pelicula latino, No Soy tu Enemigo (2019) PLACEBO Full HD 1080p Latino 1 link mega, No Soy tu Enemigo (2019) PLACEBO Full HD 1080p Latino 1 link google drive, No Soy tu Enemigo (2019) PLACEBO Full HD 1080p Latino hd 1080p latino.
Comentarios 0