×

¿Problemas para descargar con Mozilla, EDGE? Deshabilita la opción "Abrir vinculos en una pestaña nueva" tal como lo muestra ésta imagen.

No se Aceptan Devoluciones (2018) WEB-DL 1080p Latino

1.559 vistas

Información de No se Aceptan Devoluciones (2018) WEB-DL 1080p Latino

Datos de la película

  • Calidad: WEBDL
  • Audio: Se especifica abajo de la Sinopsis
  • Subtitulos: No
  • Resolución: 1916x1036
  • Formato: MKV
  • Codec: H.264
  • Encoder: cinemaniahdd
  • Mediainfo: Clic para Mostrar Datos Ver
  • No se Aceptan Devoluciones (2018) WEB-DL 1080p Latino.mkv
    Format                      : Matroska
    Format version              : Version 4
    File size                   : 4.21 GiB
    Duration                    : 1 h 43 min
    Overall bit rate            : 5 830 kb/s
    Movie name                  : No se Aceptan Devoluciones (2018) - CinemaniaHDD.Net
    Encoded date                : UTC 2019-11-29 07:56:56
    Writing application         : mkvmerge v38.0.0 ('The Silent Type') 64-bit
    Writing library             : libebml v1.3.9 + libmatroska v1.5.2

    Video
    ID                          : 1
    Format                      : AVC
    Format/Info                 : Advanced Video Codec
    Format profile              : High@L4
    Format settings             : CABAC / 4 Ref Frames
    Format settings, CABAC      : Yes
    Format settings, ReFrames   : 4 frames
    Codec ID                    : V_MPEG4/ISO/AVC
    Duration                    : 1 h 43 min
    Bit rate                    : 5 188 kb/s
    Width                       : 1 916 pixels
    Height                      : 1 036 pixels
    Display aspect ratio        : 1.85:1
    Frame rate mode             : Constant
    Frame rate                  : 23.976 (23976/1000) FPS
    Color space                 : YUV
    Chroma subsampling          : 4:2:0
    Bit depth                   : 8 bits
    Scan type                   : Progressive
    Bits/(Pixel*Frame)          : 0.109
    Stream size                 : 3.75 GiB (89%)
    Title                       : CinemaniaHDD
    Language                    : Portuguese
    Default                     : Yes
    Forced                      : No
    Color range                 : Limited
    Color primaries             : BT.709
    Transfer characteristics    : BT.709
    Matrix coefficients         : BT.709

    Audio #1
    ID                          : 2
    Format                      : AC-3
    Format/Info                 : Audio Coding 3
    Commercial name             : Dolby Digital
    Codec ID                    : A_AC3
    Duration                    : 1 h 43 min
    Bit rate mode               : Constant
    Bit rate                    : 256 kb/s
    Channel(s)                  : 2 channels
    Channel layout              : L R
    Sampling rate               : 48.0 kHz
    Frame rate                  : 31.250 FPS (1536 SPF)
    Bit depth                   : 16 bits
    Compression mode            : Lossy
    Delay relative to video     : -42 ms
    Stream size                 : 189 MiB (4%)
    Title                       : Español Latino [CinemaniaHDD]
    Language                    : Spanish
    Service kind                : Complete Main
    Default                     : Yes
    Forced                      : No

    Audio #2
    ID                          : 3
    Format                      : AC-3
    Format/Info                 : Audio Coding 3
    Commercial name             : Dolby Digital
    Codec ID                    : A_AC3
    Duration                    : 1 h 43 min
    Bit rate mode               : Constant
    Bit rate                    : 384 kb/s
    Channel(s)                  : 6 channels
    Channel layout              : L R C LFE Ls Rs
    Sampling rate               : 48.0 kHz
    Frame rate                  : 31.250 FPS (1536 SPF)
    Bit depth                   : 16 bits
    Compression mode            : Lossy
    Delay relative to video     : -42 ms
    Stream size                 : 284 MiB (7%)
    Title                       : Portuguez [CinemaniaHDD]
    Language                    : Portuguese
    Service kind                : Complete Main
    Default                     : No
    Forced                      : No

    Menu
    00:00:00.000                : en:Capítulo 01
    00:08:38.101                : en:Capítulo 02
    00:17:56.951                : en:Capítulo 03
    00:24:34.223                : en:Capítulo 04
    00:31:32.432                : en:Capítulo 05
    00:40:00.690                : en:Capítulo 06
    00:49:16.746                : en:Capítulo 07
    00:57:18.769                : en:Capítulo 08
    01:08:17.594                : en:Capítulo 09
    01:17:04.871                : en:Capítulo 10
    01:25:37.550                : en:Capítulo 11
    01:34:56.400                : en:Capítulo 12

     

  • Peso: 4.21 GiB

Sinopsis

Juca Valente (Leandro Hassum) é dono de um quiosque no litoral de São Paulo e só quer saber de diversão. Eterno namorador, ele detesta grandes responsabilidades e não pensa em ter nada sério com ninguém. Mas sua vida toma um rumo totalmente diferente quando uma ex-namorada americana larga um bebê com ele e desaparece. Juca então parte para los Estados Unidos en la intenção de devolver a criança, sem imaginar que começaria a gostar da ideia de ser pai.

Español LatinoAC3 2.0 Capturado – Portuguez AC3 5.1 WEB-DL

Ficha técnica

  • Titulo original: Não Se Aceitam Devoluções
  • Fecha de lanzamiento: 01-05-2018 (Brazil)
  • Director: André Moraes
  • Género: Comedia

Video trailer de la película

Enlaces de descarga

Rip de Bluray

Descargar No se Aceptan Devoluciones (2018) WEB-DL 1080p Latino




Aportes de DPeliculasHDmega la pass es:dpeliculashdmega.org Aportes de CinemaniaHD la pass es:cinemaniahdd.com
Guardado en : Comedia

Películas relacionadas

  • DC Liga De Supermascotas (2022) HD 1080p Latino

    DC Liga De Supermascotas (2022) HD 1080p Latino

    2022
    DC Liga De Supermascotas (2022) HD 1080p Latino

    1h 45m 2022

    Descargar DC Liga De Supermascotas (2022) HD 1080p Latino. Krypto el Superperro y Superman son amigos...

    Director: Sam Levine

    Género: Acción

    Actores: Yvette Nicole Brown

  • Rick and Morty (2022) Temporada 6 WEB-DL 1080p Latino

    Rick and Morty (2022) Temporada 6 WEB-DL 1080p Latino

    2013
    Rick and Morty (2022) Temporada 6 WEB-DL 1080p Latino

    0h 22m 2013

    Comedia animada que narra las aventuras de un científico loco Rick Sánchez, que regresa después de...

    Director: Justin Roiland

    Género: Action & Adventure

    Actores: Spencer Grammer

  • Tremors (1990) REMUX 4K HDR Latino – CMHDD

    Tremors (1990) REMUX 4K HDR Latino – CMHDD

    1990
    Tremors (1990) REMUX 4K HDR Latino – CMHDD

    1h 35m 1990

    En Perfección, un pequeño pueblo al borde del desierto de Nevada, algo parece suceder debajo de la...

    Director: Susan Bierbaum

    Género: Acción

    Actores: Victor Wong

descargar No se Aceptan Devoluciones (2018) WEB-DL 1080p Latino WEBDL 1080p gratis, No se Aceptan Devoluciones (2018) WEB-DL 1080p Latino WEBDL mega 1 link, No se Aceptan Devoluciones (2018) WEB-DL 1080p Latino WEBDL pelicula completa, descargar No se Aceptan Devoluciones (2018) WEB-DL 1080p Latino WEBDL gratis en mega.

No se Aceptan Devoluciones (2018) WEB-DL 1080p Latino pelicula full hd, No se Aceptan Devoluciones (2018) WEB-DL 1080p Latino mega latino, No se Aceptan Devoluciones (2018) WEB-DL 1080p Latino 4k latino, No se Aceptan Devoluciones (2018) WEB-DL 1080p Latino pelicula completa, No se Aceptan Devoluciones (2018) WEB-DL 1080p Latino descargar gratis, descargar No se Aceptan Devoluciones (2018) WEB-DL 1080p Latino pelicula latino, No se Aceptan Devoluciones (2018) WEB-DL 1080p Latino 1 link mega, No se Aceptan Devoluciones (2018) WEB-DL 1080p Latino 1 link google drive, No se Aceptan Devoluciones (2018) WEB-DL 1080p Latino hd 1080p latino.
Comentarios 0