×

¿Problemas para descargar con Mozilla, EDGE? Deshabilita la opción "Abrir vinculos en una pestaña nueva" tal como lo muestra ésta imagen.

No Retreat, No Surrender (1985) WEB-DL 1080p Latino – CMHDD

84 vistas

Información de No Retreat, No Surrender (1985) WEB-DL 1080p Latino – CMHDD

Datos de la película

  • Calidad: WEBDL
  • Audio: Español Latino AC3 2.0 WEB-DL - Ingles AC3 2.0 WEB-DL
  • Subtitulos: Español Latino SRT
  • Resolución: 19201080p
  • Formato: MKV
  • Codec: H.264
  • Encoder: Dracarys
  • Mediainfo: Clic para Mostrar Datos Ver
  • Format                      : Matroska
    Format version              : Version 4
    File size                   : 6.20 GiB
    Duration                    : 1 h 38 min
    Overall bit rate            : 8 986 kb/s
    Movie name                  : No Retreat, No Surrender (1985) WEB-DL 1080p Latino - CMHDD
    Encoded date                : UTC 2024-04-09 22:14:37
    Writing application         : mkvmerge v47.0.0 ('Black Flag') 64-bit
    Writing library             : libebml v1.3.10 + libmatroska v1.5.2

    Video
    ID                          : 1
    Format                      : AVC
    Format/Info                 : Advanced Video Codec
    Format profile              : High@L4
    Format settings             : CABAC / 4 Ref Frames
    Format settings, CABAC      : Yes
    Format settings, Reference  : 4 frames
    Codec ID                    : V_MPEG4/ISO/AVC
    Duration                    : 1 h 38 min
    Bit rate mode               : Constant
    Bit rate                    : 8 536 kb/s
    Nominal bit rate            : 10 000 kb/s
    Width                       : 1 920 pixels
    Height                      : 1 080 pixels
    Display aspect ratio        : 16:9
    Frame rate mode             : Constant
    Frame rate                  : 23.976 (24000/1001) FPS
    Color space                 : YUV
    Chroma subsampling          : 4:2:0
    Bit depth                   : 8 bits
    Scan type                   : Progressive
    Bits/(Pixel*Frame)          : 0.172
    Stream size                 : 5.89 GiB (95%)
    Language                    : Spanish
    Default                     : Yes
    Forced                      : Yes
    Color range                 : Limited
    Color primaries             : BT.709
    Transfer characteristics    : BT.709
    Matrix coefficients         : BT.709

    Audio #1
    ID                          : 2
    Format                      : E-AC-3
    Format/Info                 : Enhanced AC-3
    Commercial name             : Dolby Digital Plus
    Codec ID                    : A_EAC3
    Duration                    : 1 h 38 min
    Bit rate mode               : Constant
    Bit rate                    : 224 kb/s
    Channel(s)                  : 2 channels
    Channel layout              : L R
    Sampling rate               : 48.0 kHz
    Frame rate                  : 31.250 FPS (1536 SPF)
    Compression mode            : Lossy
    Stream size                 : 158 MiB (2%)
    Language                    : Spanish
    Service kind                : Complete Main
    Default                     : Yes
    Forced                      : Yes

    Audio #2
    ID                          : 3
    Format                      : E-AC-3
    Format/Info                 : Enhanced AC-3
    Commercial name             : Dolby Digital Plus
    Codec ID                    : A_EAC3
    Duration                    : 1 h 38 min
    Bit rate mode               : Constant
    Bit rate                    : 224 kb/s
    Channel(s)                  : 2 channels
    Channel layout              : L R
    Sampling rate               : 48.0 kHz
    Frame rate                  : 31.250 FPS (1536 SPF)
    Compression mode            : Lossy
    Stream size                 : 158 MiB (2%)
    Language                    : English
    Service kind                : Complete Main
    Default                     : No
    Forced                      : No

    Text
    ID                          : 4
    Format                      : UTF-8
    Codec ID                    : S_TEXT/UTF8
    Codec ID/Info               : UTF-8 Plain Text
    Duration                    : 1 h 37 min
    Bit rate                    : 35 b/s
    Frame rate                  : 0.174 FPS
    Count of elements           : 1025
    Stream size                 : 25.8 KiB (0%)
    Language                    : Spanish
    Default                     : No
    Forced                      : No

     

  • Peso: 6.20 GiB

Sinopsis

Jason Slillwell es un apasionado admirador de Bruce Lee, cuyo padre, instructor de karate, resulta herido y humillado por el crimen organizado de la Costa Este. Jason decide practicar el karate esperando la hora de la venganza. Su amigo R.J. le sugiere introducirse en un determinado gimnasio, regentado por el campeón nacional de full-contact, que es precisamente hermano de su ex novia, Nelly; pero el hermano de Nelly y sus amigos le propinan una paliza de muerte.

Ficha técnica

  • Titulo original: No Retreat, No Surrender
  • Fecha de lanzamiento: 02-05-1986 (Hong Kong, United States of America)
  • Director: Corey Yuen
  • Género: Acción

Video trailer de la película

Enlaces de descarga

Rip de Bluray

Descargar No Retreat, No Surrender (1985) WEB-DL 1080p Latino – CMHDD




Aportes de DPeliculasHDmega la pass es:dpeliculashdmega.org Aportes de CinemaniaHD la pass es:cinemaniahdd.com Aportes recientes:cinemaniahdd.net
Guardado en : Acción

Películas relacionadas

  • Godzilla: Minus One (2023) 1080p SUB-CMHDD

    Godzilla: Minus One (2023) 1080p SUB-CMHDD

    2023
    Godzilla: Minus One (2023) 1080p SUB-CMHDD

    2h 5m 2023

    Descargar Godzilla: Minus One (2023) 1080p SUB-CMHDD. En el Japón de la posguerra surge un nuevo terror....

    Director: 山崎貴

    Género: Acción

    Actores: 鶴田翔

  • Kung Fu Panda 4 (2024) 1080p Latino-CMHDD

    Kung Fu Panda 4 (2024) 1080p Latino-CMHDD

    2024
    Kung Fu Panda 4 (2024) 1080p Latino-CMHDD

    1h 34m 2024

    Descargar Kung Fu Panda 4 (2024) 1080p Latino-CMHDD. Po se prepara para ser el líder espiritual del...

    Director: Stephanie Ma Stine

    Género: Acción

    Actores: Viola Davis

  • Kung Fu Panda 4 (2024) Full HD 1080p Latino-CMHDD

    Kung Fu Panda 4 (2024) Full HD 1080p Latino-CMHDD

    2024
    Kung Fu Panda 4 (2024) Full HD 1080p Latino-CMHDD

    1h 34m 2024

    Descargar Kung Fu Panda 4 (2024) Full HD 1080p Latino-CMHDD. Po se prepara para ser el líder espiritual...

    Director: Stephanie Ma Stine

    Género: Acción

    Actores: Viola Davis

  • Kung Fu Panda 4 (2024) REMUX 1080p Latino-CMHDD

    Kung Fu Panda 4 (2024) REMUX 1080p Latino-CMHDD

    2024
    Kung Fu Panda 4 (2024) REMUX 1080p Latino-CMHDD

    1h 34m 2024

    Descargar Kung Fu Panda 4 (2024) REMUX 1080p Latino-CMHDD. Po se prepara para ser el líder espiritual...

    Director: Stephanie Ma Stine

    Género: Acción

    Actores: Viola Davis

descargar No Retreat, No Surrender (1985) WEB-DL 1080p Latino – CMHDD WEBDL 1080p gratis, No Retreat, No Surrender (1985) WEB-DL 1080p Latino – CMHDD WEBDL mega 1 link, No Retreat, No Surrender (1985) WEB-DL 1080p Latino – CMHDD WEBDL pelicula completa, descargar No Retreat, No Surrender (1985) WEB-DL 1080p Latino – CMHDD WEBDL gratis en mega.

No Retreat, No Surrender (1985) WEB-DL 1080p Latino – CMHDD pelicula full hd, No Retreat, No Surrender (1985) WEB-DL 1080p Latino – CMHDD mega latino, No Retreat, No Surrender (1985) WEB-DL 1080p Latino – CMHDD 4k latino, No Retreat, No Surrender (1985) WEB-DL 1080p Latino – CMHDD pelicula completa, No Retreat, No Surrender (1985) WEB-DL 1080p Latino – CMHDD descargar gratis, descargar No Retreat, No Surrender (1985) WEB-DL 1080p Latino – CMHDD pelicula latino, No Retreat, No Surrender (1985) WEB-DL 1080p Latino – CMHDD 1 link mega, No Retreat, No Surrender (1985) WEB-DL 1080p Latino – CMHDD 1 link google drive, No Retreat, No Surrender (1985) WEB-DL 1080p Latino – CMHDD hd 1080p latino.
Comentarios 0