No, porque me enamoro (2020) AMZN Web-DL 1080p Latino

37 vistas
1 estrella2 estrellas3 estrellas4 estrellas5 estrellas (Ninguna valoración todavía)
Cargando...

Información de No, porque me enamoro (2020) AMZN Web-DL 1080p Latino

Datos de la película

  • Calidad: WEBDL
  • Audio: Se especifica abajo de la Sinopsis
  • Subtitulos: No
  • Resolución: 1920x816p
  • Formato: MKV
  • Codec: H.264
  • Encoder: Melkor
  • Mediainfo: Clic para Mostrar Datos Ver
  • No Porque Me Enamoro (2020) Web-DL 1080p Latino.mkv
    Format                      : Matroska
    Format version              : Version 4
    File size                   : 7.00 GiB
    Duration                    : 1 h 36 min
    Overall bit rate            : 10.4 Mb/s
    Movie name                  : No Porque Me Enamoro (2020) CinemaniaHDD.Net
    Encoded date                : UTC 2021-09-19 22:47:16
    Writing application         : mkvmerge v56.1.0 ('My Friend') 64-bit
    Writing library             : libebml v1.4.2 + libmatroska v1.6.4
    Attachments                 : CINEMANIAHD.png

    Video
    ID                          : 1
    Format                      : AVC
    Format/Info                 : Advanced Video Codec
    Format profile              : High@L4
    Format settings             : CABAC / 4 Ref Frames
    Format settings, CABAC      : Yes
    Format settings, Reference  : 4 frames
    Codec ID                    : V_MPEG4/ISO/AVC
    Duration                    : 1 h 36 min
    Bit rate                    : 9 102 kb/s
    Width                       : 1 920 pixels
    Height                      : 816 pixels
    Display aspect ratio        : 2.35:1
    Frame rate mode             : Constant
    Frame rate                  : 23.976 (24000/1001) FPS
    Color space                 : YUV
    Chroma subsampling          : 4:2:0
    Bit depth                   : 8 bits
    Scan type                   : Progressive
    Bits/(Pixel*Frame)          : 0.242
    Stream size                 : 6.13 GiB (88%)
    Title                       : Web HD1080p [CinemaniaHDD]
    Default                     : Yes
    Forced                      : Yes
    Color range                 : Limited
    Color primaries             : BT.709
    Transfer characteristics    : BT.709
    Matrix coefficients         : BT.709

    Audio #1
    ID                          : 2
    Format                      : E-AC-3
    Format/Info                 : Enhanced AC-3
    Commercial name             : Dolby Digital Plus
    Codec ID                    : A_EAC3
    Duration                    : 1 h 36 min
    Bit rate mode               : Constant
    Bit rate                    : 640 kb/s
    Channel(s)                  : 6 channels
    Channel layout              : L R C LFE Ls Rs
    Sampling rate               : 48.0 kHz
    Frame rate                  : 31.250 FPS (1536 SPF)
    Compression mode            : Lossy
    Stream size                 : 441 MiB (6%)
    Title                       : Español Latino [CinemaniaHDD]
    Language                    : Spanish
    Service kind                : Complete Main
    Default                     : Yes
    Forced                      : Yes

    Audio #2
    ID                          : 3
    Format                      : AC-3
    Format/Info                 : Audio Coding 3
    Commercial name             : Dolby Digital
    Codec ID                    : A_AC3
    Duration                    : 1 h 36 min
    Bit rate mode               : Constant
    Bit rate                    : 640 kb/s
    Channel(s)                  : 6 channels
    Channel layout              : L R C LFE Ls Rs
    Sampling rate               : 48.0 kHz
    Frame rate                  : 31.250 FPS (1536 SPF)
    Compression mode            : Lossy
    Stream size                 : 441 MiB (6%)
    Title                       : Español Latino AC3 [CinemaniaHDD]
    Language                    : Spanish
    Service kind                : Complete Main
    Default                     : No
    Forced                      : No

  • Peso: 7.00 GiB

Sinopsis

Descargar No, porque me enamoro (2020) AMZN Web-DL 1080p Latino. Daniela (Sofia de Llaca), una chica con 19 años y con brackets consigue lo que siempre soñó pero jamás imaginó: una cita con el hombre de sus sueños (y el de muchas chicas más), el irresistible, famoso, Dios de la música, Gabo Gabeau (Emiliano Zurita). Todo parece demasiado bueno para ser cierto, y lo es hasta que Gabo le pide un inesperado favor a Daniela que desencadenará en una serie de enredos entre enamoramiento, música y chantajes que la llevan a arriesgar el verdadero amor.

Español Latino EAC3 & AC3 5.1

Ficha técnica

  • Titulo original: No, porque me enamoro
  • Fecha de lanzamiento: 30-10-2020 (Mexico)
  • Director: Santiago Limón
  • Género: Comedia, Romance
  • Puntuación: 0.0 0 votos
  • Duración:
    1h 40m

Video trailer de la película

Enlaces de descarga

Rip de Bluray

Descargar No, porque me enamoro (2020) AMZN Web-DL 1080p Latino




Aportes de DPeliculasHDmega la pass es:dpeliculashdmega.org Aportes de CinemaniaHD la pass es:cinemaniahdd.com
Guardado en : Comedia , Romance

Películas relacionadas

No, porque me enamoro (2020) AMZN Web-DL 1080p Latino pelicula full hd, No, porque me enamoro (2020) AMZN Web-DL 1080p Latino mega latino, No, porque me enamoro (2020) AMZN Web-DL 1080p Latino 4k latino, No, porque me enamoro (2020) AMZN Web-DL 1080p Latino pelicula completa, No, porque me enamoro (2020) AMZN Web-DL 1080p Latino descargar gratis, descargar No, porque me enamoro (2020) AMZN Web-DL 1080p Latino pelicula latino, No, porque me enamoro (2020) AMZN Web-DL 1080p Latino 1 link mega, No, porque me enamoro (2020) AMZN Web-DL 1080p Latino 1 link google drive, No, porque me enamoro (2020) AMZN Web-DL 1080p Latino hd 1080p latino.
Comentarios 0