×

¿Problemas para descargar con Mozilla, EDGE? Deshabilita la opción "Abrir vinculos en una pestaña nueva" tal como lo muestra ésta imagen.

No One Will Save You (2023) Star+ WEB-DL 1080p Subtitulado

227 vistas

Información de No One Will Save You (2023) Star+ WEB-DL 1080p Subtitulado

Datos de la película

  • Calidad: 1080p
  • Audio: Se especifica abajo de la Sinopsis
  • Subtitulos: Español Latino SRT
  • Resolución: 1920x1080
  • Formato: MKV
  • Codec: H.264
  • Encoder: cinemaniahdd
  • Mediainfo: Clic para Mostrar Datos Ver
  • No One Will Save You (2023) Star+ WEB-DL 1080p Subtitulado [CNMNHDD].mkv
    Format                      : Matroska
    Format version              : Version 4
    File size                   : 5.04 GiB
    Duration                    : 1 h 33 min
    Overall bit rate mode       : Variable
    Overall bit rate            : 7 754 kb/s
    Movie name                  : Nadie podrá salvarte (2023) - [1080p] - CinemaniaHDD.Net
    Encoded date                : UTC 2023-09-22 17:28:03
    Writing application         : mkvmerge v56.1.0 ('My Friend') 64-bit
    Writing library             : libebml v1.4.2 + libmatroska v1.6.4

    Video
    ID                          : 1
    Format                      : AVC
    Format/Info                 : Advanced Video Codec
    Format profile              : High@L4
    Format settings             : CABAC / 4 Ref Frames
    Format settings, CABAC      : Yes
    Format settings, Reference  : 4 frames
    Codec ID                    : V_MPEG4/ISO/AVC
    Duration                    : 1 h 33 min
    Bit rate mode               : Variable
    Bit rate                    : 6 600 kb/s
    Maximum bit rate            : 12.7 Mb/s
    Width                       : 1 920 pixels
    Height                      : 1 080 pixels
    Display aspect ratio        : 16:9
    Frame rate mode             : Constant
    Frame rate                  : 24.000 FPS
    Color space                 : YUV
    Chroma subsampling          : 4:2:0
    Bit depth                   : 8 bits
    Scan type                   : Progressive
    Bits/(Pixel*Frame)          : 0.133
    Stream size                 : 4.29 GiB (85%)
    Title                       : CinemaniaHDD
    Language                    : English
    Default                     : Yes
    Forced                      : No
    Color range                 : Limited
    Color primaries             : BT.709
    Transfer characteristics    : BT.709
    Matrix coefficients         : BT.709

    Audio #1
    ID                          : 2
    Format                      : AC-3
    Format/Info                 : Audio Coding 3
    Commercial name             : Dolby Digital
    Codec ID                    : A_AC3
    Duration                    : 1 h 33 min
    Bit rate mode               : Constant
    Bit rate                    : 384 kb/s
    Channel(s)                  : 6 channels
    Channel layout              : L R C LFE Ls Rs
    Sampling rate               : 48.0 kHz
    Frame rate                  : 31.250 FPS (1536 SPF)
    Compression mode            : Lossy
    Stream size                 : 256 MiB (5%)
    Title                       : Ingles / AC3 5.1 [CinemaniaHDD]
    Language                    : English
    Service kind                : Complete Main
    Default                     : Yes
    Forced                      : No

    Audio #2
    ID                          : 3
    Format                      : E-AC-3 JOC
    Format/Info                 : Enhanced AC-3 with Joint Object Coding
    Commercial name             : Dolby Digital Plus with Dolby Atmos
    Codec ID                    : A_EAC3
    Duration                    : 1 h 33 min
    Bit rate mode               : Constant
    Bit rate                    : 768 kb/s
    Channel(s)                  : 6 channels
    Channel layout              : L R C LFE Ls Rs
    Sampling rate               : 48.0 kHz
    Frame rate                  : 31.250 FPS (1536 SPF)
    Compression mode            : Lossy
    Stream size                 : 512 MiB (10%)
    Title                       : Ingles / EAC3 5.1 [CinemaniaHDD]
    Language                    : English
    Service kind                : Complete Main
    Default                     : No
    Forced                      : No
    Complexity index            : 16
    Number of dynamic objects   : 15
    Bed channel count           : 1 channel
    Bed channel configuration   : LFE

    Text
    ID                          : 4
    Format                      : UTF-8
    Codec ID                    : S_TEXT/UTF8
    Codec ID/Info               : UTF-8 Plain Text
    Duration                    : 1 h 32 min
    Bit rate                    : 3 b/s
    Count of elements           : 96
    Stream size                 : 2.63 KiB (0%)
    Title                       : Español Latino [CinemaniaHDD]
    Language                    : Spanish
    Default                     : Yes
    Forced                      : Yes

    Menu
    00:08:57.542                : Scene 1
    00:15:47.542                : Scene 2
    00:26:37.083                : Scene 3
    00:33:28.458                : Scene 4
    00:43:43.042                : Scene 5
    00:52:50.208                : Scene 6
    01:07:19.458                : Scene 7
    01:15:21.625                : Scene 8
    01:23:22.917                : Scene 9
    01:28:00.333                : Credits

     

  • Peso: 5.04 GiB

Sinopsis

De 20th Century Studios, Nadie podrá salvarte es una cautivante película de suspenso psicológico de ciencia ficción que nos presenta a Brynn Adams, una joven talentosa y creativa que fue expulsada de su comunidad. Se siente sola, pero tiene esperanza y encuentra consuelo en el hogar donde creció hasta que una noche unos ruidos extraños que provienen de intrusos sobrenaturales la despiertan. Brynn y los extraterrestres que amenazan su futuro tienen peleas llenas de acción mientras ella se enfrenta a su pasado.

Ingles Ambiental EAC3 JOC / AC3 5.1

Ficha técnica

Video trailer de la película

Enlaces de descarga

Rip de Bluray

Descargar No One Will Save You (2023) Star+ WEB-DL 1080p Subtitulado




Aportes de DPeliculasHDmega la pass es:dpeliculashdmega.org Aportes de CinemaniaHD la pass es:cinemaniahdd.com Aportes recientes:cinemaniahdd.net
Guardado en : Ciencia ficción , Suspenso , Terror

Películas relacionadas

  • V for Vendetta (2005) REMUX 4K HDR Latino – CMHDD

    V for Vendetta (2005) REMUX 4K HDR Latino – CMHDD

    2006
    V for Vendetta (2005) REMUX 4K HDR Latino – CMHDD

    2h 12m 2006

    En un futuro no muy lejano, Gran Bretaña es un país totalitario dirigido con mano de hierro por un...

    Director: Tobias Asam

    Género: Acción

    Actores: Wolfgang Stegemann

  • Ringu (1998) REMUX 4K HDR Japonés – CMHDD

    Ringu (1998) REMUX 4K HDR Japonés – CMHDD

    1998
    Ringu (1998) REMUX 4K HDR Japonés – CMHDD

    1h 36m 1998

    En una pequeña y apacible localidad japonesa, entre los estudiantes circula una leyenda en torno a unos...

    Director: Hideo Nakata

    Género: Suspenso

    Actores: 竹内 結子

  • Tiburón (1975) REMUX 1080p Latino-CMHDD

    Tiburón (1975) REMUX 1080p Latino-CMHDD

    1975
    Tiburón (1975) REMUX 1080p Latino-CMHDD

    2h 4m 1975

    Descargar Tiburón (1975) REMUX 1080p Latino-CMHDD. En la costa de un pequeño pueblo del Este de Estados...

    Director: Tom Joyner

    Género: Aventura

    Actores: Ted Grossman

  • Oblivion (2013) REMUX 4K HDR Latino – CMHDD

    Oblivion (2013) REMUX 4K HDR Latino – CMHDD

    2013
    Oblivion (2013) REMUX 4K HDR Latino – CMHDD

    2 h 4 min 2013

    Jack Harper es uno de los últimos técnicos de reparación de drones que permanece en la Tierra. Parte...

    Director: Joseph Kosinski

    Género: 4K HDR

    Actores: Zoë Bell

descargar No One Will Save You (2023) Star+ WEB-DL 1080p Subtitulado 1080p 1080p gratis, No One Will Save You (2023) Star+ WEB-DL 1080p Subtitulado 1080p mega 1 link, No One Will Save You (2023) Star+ WEB-DL 1080p Subtitulado 1080p pelicula completa, descargar No One Will Save You (2023) Star+ WEB-DL 1080p Subtitulado 1080p gratis en mega.

No One Will Save You (2023) Star+ WEB-DL 1080p Subtitulado pelicula full hd, No One Will Save You (2023) Star+ WEB-DL 1080p Subtitulado mega latino, No One Will Save You (2023) Star+ WEB-DL 1080p Subtitulado 4k latino, No One Will Save You (2023) Star+ WEB-DL 1080p Subtitulado pelicula completa, No One Will Save You (2023) Star+ WEB-DL 1080p Subtitulado descargar gratis, descargar No One Will Save You (2023) Star+ WEB-DL 1080p Subtitulado pelicula latino, No One Will Save You (2023) Star+ WEB-DL 1080p Subtitulado 1 link mega, No One Will Save You (2023) Star+ WEB-DL 1080p Subtitulado 1 link google drive, No One Will Save You (2023) Star+ WEB-DL 1080p Subtitulado hd 1080p latino.
Comentarios 0