×

¿Problemas para descargar con Mozilla, EDGE? Deshabilita la opción "Abrir vinculos en una pestaña nueva" tal como lo muestra ésta imagen.

No Man’s Land (2020) Primera Temporada AMZN WEB-DL 1080p Latino

354 vistas

Información de No Man’s Land (2020) Primera Temporada AMZN WEB-DL 1080p Latino

Datos de la película

  • Calidad: 1080p
  • Audio: Español Latino AC3 5.1 WEB-DL - Ingles AC3 5.1 WEB-DL
  • Subtitulos: Español Latino SRT - Ingles SRT
  • Resolución: 1920x1080
  • Formato: MKV
  • Codec: H.264
  • Encoder: cinemaniahdd
  • Mediainfo: Clic para Mostrar Datos Ver
  • No Mans Land T01E01 AMZN WEB-DL 1080p Latino [CNMNHDD].mkv
    Format                      : Matroska
    Format version              : Version 4
    File size                   : 2.53 GiB
    Duration                    : 43 min 12 s
    Overall bit rate            : 8 391 kb/s
    Movie name                  : No Mans Land S01E01 - Episode 1 [1080p] - CinemaniaHDD.Net
    Encoded date                : UTC 2022-08-14 18:48:53
    Writing application         : mkvmerge v56.1.0 ('My Friend') 64-bit
    Writing library             : libebml v1.4.2 + libmatroska v1.6.4

    Video
    ID                          : 1
    Format                      : AVC
    Format/Info                 : Advanced Video Codec
    Format profile              : High@L4
    Format settings             : CABAC / 4 Ref Frames
    Format settings, CABAC      : Yes
    Format settings, Reference  : 4 frames
    Codec ID                    : V_MPEG4/ISO/AVC
    Duration                    : 43 min 12 s
    Bit rate mode               : Constant
    Bit rate                    : 6 469 kb/s
    Nominal bit rate            : 10 000 kb/s
    Width                       : 1 920 pixels
    Height                      : 1 080 pixels
    Display aspect ratio        : 16:9
    Frame rate mode             : Constant
    Frame rate                  : 25.000 FPS
    Color space                 : YUV
    Chroma subsampling          : 4:2:0
    Bit depth                   : 8 bits
    Scan type                   : Progressive
    Bits/(Pixel*Frame)          : 0.125
    Stream size                 : 1.95 GiB (77%)
    Title                       : CinemaniaHDD
    Default                     : Yes
    Forced                      : No
    Color range                 : Limited
    Color primaries             : BT.709
    Transfer characteristics    : BT.709
    Matrix coefficients         : BT.709

    Audio #1
    ID                          : 2
    Format                      : AC-3
    Format/Info                 : Audio Coding 3
    Commercial name             : Dolby Digital
    Codec ID                    : A_AC3
    Duration                    : 43 min 12 s
    Bit rate mode               : Constant
    Bit rate                    : 640 kb/s
    Channel(s)                  : 6 channels
    Channel layout              : L R C LFE Ls Rs
    Sampling rate               : 48.0 kHz
    Frame rate                  : 31.250 FPS (1536 SPF)
    Compression mode            : Lossy
    Stream size                 : 198 MiB (8%)
    Title                       : Español latino [CinemaniaHDD]
    Language                    : Spanish
    Service kind                : Complete Main
    Default                     : Yes
    Forced                      : No

    Audio #2
    ID                          : 3
    Format                      : E-AC-3
    Format/Info                 : Enhanced AC-3
    Commercial name             : Dolby Digital Plus
    Codec ID                    : A_EAC3
    Duration                    : 43 min 12 s
    Bit rate mode               : Constant
    Bit rate                    : 640 kb/s
    Channel(s)                  : 6 channels
    Channel layout              : L R C LFE Ls Rs
    Sampling rate               : 48.0 kHz
    Frame rate                  : 31.250 FPS (1536 SPF)
    Compression mode            : Lossy
    Stream size                 : 198 MiB (8%)
    Title                       : Español latino / E-AC3 [CinemaniaHDD]
    Language                    : Spanish
    Service kind                : Complete Main
    Default                     : No
    Forced                      : No

    Audio #3
    ID                          : 4
    Format                      : E-AC-3
    Format/Info                 : Enhanced AC-3
    Commercial name             : Dolby Digital Plus
    Codec ID                    : A_EAC3
    Duration                    : 43 min 12 s
    Bit rate mode               : Constant
    Bit rate                    : 640 kb/s
    Channel(s)                  : 6 channels
    Channel layout              : L R C LFE Ls Rs
    Sampling rate               : 48.0 kHz
    Frame rate                  : 31.250 FPS (1536 SPF)
    Compression mode            : Lossy
    Stream size                 : 198 MiB (8%)
    Title                       : Francés [CinemaniaHDD]
    Language                    : French
    Service kind                : Complete Main
    Default                     : No
    Forced                      : No

    Text #1
    ID                          : 5
    Format                      : UTF-8
    Codec ID                    : S_TEXT/UTF8
    Codec ID/Info               : UTF-8 Plain Text
    Duration                    : 41 min 35 s
    Bit rate                    : 41 b/s
    Count of elements           : 434
    Stream size                 : 12.7 KiB (0%)
    Title                       : Español latino [CinemaniaHDD]
    Language                    : Spanish
    Default                     : No
    Forced                      : No

    Text #2
    ID                          : 6
    Format                      : UTF-8
    Codec ID                    : S_TEXT/UTF8
    Codec ID/Info               : UTF-8 Plain Text
    Duration                    : 41 min 26 s
    Bit rate                    : 30 b/s
    Count of elements           : 348
    Stream size                 : 9.31 KiB (0%)
    Title                       : Inglés [CinemaniaHDD]
    Language                    : English
    Default                     : No
    Forced                      : No

    Menu
    00:00:00.000                : Studio Logo
    00:00:06.000                : Prologue
    00:01:24.000                : Scene 3
    00:03:03.000                : Title Sequence
    00:03:09.000                : Scene 5
    00:07:53.000                : Scene 6
    00:16:19.000                : Scene 7
    00:20:31.000                : Scene 8
    00:24:20.000                : Scene 9
    00:34:00.000                : Scene 10
    00:38:02.000                : Scene 11
    00:42:21.000                : End Credits

     

  • Peso: 2.53 GiB Aprox ---- 24 GiB in 8 Chapters.

Sinopsis

La hermana de Antoine lleva varios años declarada muerta, pero él está convencido de que está viva. Viaja a Siria, donde las combatientes kurdas luchan contra ISIS.

Ficha técnica

Video trailer de la película

Enlaces de descarga

Rip de Bluray

Descargar No Man’s Land (2020) Primera Temporada AMZN WEB-DL 1080p Latino




Aportes de DPeliculasHDmega la pass es:dpeliculashdmega.org Aportes de CinemaniaHD la pass es:cinemaniahdd.com

Películas relacionadas

descargar No Man’s Land (2020) Primera Temporada AMZN WEB-DL 1080p Latino 1080p 1080p gratis, No Man’s Land (2020) Primera Temporada AMZN WEB-DL 1080p Latino 1080p mega 1 link, No Man’s Land (2020) Primera Temporada AMZN WEB-DL 1080p Latino 1080p serie completa, descargar No Man’s Land (2020) Primera Temporada AMZN WEB-DL 1080p Latino 1080p gratis en mega.

No Man’s Land (2020) Primera Temporada AMZN WEB-DL 1080p Latino pelicula full hd, No Man’s Land (2020) Primera Temporada AMZN WEB-DL 1080p Latino mega latino, No Man’s Land (2020) Primera Temporada AMZN WEB-DL 1080p Latino 4k latino, No Man’s Land (2020) Primera Temporada AMZN WEB-DL 1080p Latino pelicula completa, No Man’s Land (2020) Primera Temporada AMZN WEB-DL 1080p Latino descargar gratis, descargar No Man’s Land (2020) Primera Temporada AMZN WEB-DL 1080p Latino pelicula latino, No Man’s Land (2020) Primera Temporada AMZN WEB-DL 1080p Latino 1 link mega, No Man’s Land (2020) Primera Temporada AMZN WEB-DL 1080p Latino 1 link google drive, No Man’s Land (2020) Primera Temporada AMZN WEB-DL 1080p Latino hd 1080p latino.
Comentarios 0