×

¿Problemas para descargar con Mozilla, EDGE? Deshabilita la opción "Abrir vinculos en una pestaña nueva" tal como lo muestra ésta imagen.

No Gogó do Paulinho (2020) AMZN WEB-DL 1080p Latino

200 vistas

Información de No Gogó do Paulinho (2020) AMZN WEB-DL 1080p Latino

Datos de la película

  • Calidad: WEBDL
  • Audio: Se especifica abajo de la Sinopsis
  • Subtitulos: Español Latino SRT- FORZADOS SRT
  • Resolución: 1920x1080
  • Formato: MKV
  • Codec: H.264
  • Encoder: cinemaniahdd
  • Mediainfo: Clic para Mostrar Datos Ver
  • El Conta Historias (2020) AMZN WEB-DL 1080p Latino [CNMNHDD].mkv
    Format                      : Matroska
    Format version              : Version 4
    File size                   : 7.49 GiB
    Duration                    : 1 h 29 min
    Overall bit rate            : 11.9 Mb/s
    Movie name                  : El Conta Historias (2020) - CinemaniaHDD.Net
    Encoded date                : UTC 2021-01-15 02:57:39
    Writing application         : mkvmerge v51.0.0 ('I Wish') 64-bit
    Writing library             : libebml v1.4.0 + libmatroska v1.6.2

    Video
    ID                          : 1
    Format                      : AVC
    Format/Info                 : Advanced Video Codec
    Format profile              : High@L4
    Format settings             : CABAC / 4 Ref Frames
    Format settings, CABAC      : Yes
    Format settings, Reference  : 4 frames
    Codec ID                    : V_MPEG4/ISO/AVC
    Duration                    : 1 h 29 min
    Bit rate mode               : Constant
    Bit rate                    : 9 380 kb/s
    Nominal bit rate            : 10 000 kb/s
    Width                       : 1 920 pixels
    Height                      : 1 040 pixels
    Display aspect ratio        : 1.85:1
    Frame rate mode             : Constant
    Frame rate                  : 24.000 FPS
    Color space                 : YUV
    Chroma subsampling          : 4:2:0
    Bit depth                   : 8 bits
    Scan type                   : Progressive
    Bits/(Pixel*Frame)          : 0.196
    Stream size                 : 5.88 GiB (79%)
    Title                       : CinemaniaHDD
    Default                     : Yes
    Forced                      : No
    Color range                 : Limited
    Color primaries             : BT.709
    Transfer characteristics    : BT.709
    Matrix coefficients         : BT.709

    Audio #1
    ID                          : 2
    Format                      : AC-3
    Format/Info                 : Audio Coding 3
    Commercial name             : Dolby Digital
    Codec ID                    : A_AC3
    Duration                    : 1 h 29 min
    Bit rate mode               : Constant
    Bit rate                    : 640 kb/s
    Channel(s)                  : 6 channels
    Channel layout              : L R C LFE Ls Rs
    Sampling rate               : 48.0 kHz
    Frame rate                  : 31.250 FPS (1536 SPF)
    Compression mode            : Lossy
    Stream size                 : 411 MiB (5%)
    Title                       : Español latino [CinemaniaHDD]
    Language                    : Spanish
    Service kind                : Complete Main
    Default                     : Yes
    Forced                      : No

    Audio #2
    ID                          : 3
    Format                      : E-AC-3
    Format/Info                 : Enhanced AC-3
    Commercial name             : Dolby Digital Plus
    Codec ID                    : A_EAC3
    Duration                    : 1 h 29 min
    Bit rate mode               : Constant
    Bit rate                    : 640 kb/s
    Channel(s)                  : 6 channels
    Channel layout              : L R C LFE Ls Rs
    Sampling rate               : 48.0 kHz
    Frame rate                  : 31.250 FPS (1536 SPF)
    Compression mode            : Lossy
    Stream size                 : 411 MiB (5%)
    Title                       : Español latino [CinemaniaHDD]
    Language                    : Spanish
    Service kind                : Complete Main
    Default                     : No
    Forced                      : No

    Audio #3
    ID                          : 4
    Format                      : E-AC-3
    Format/Info                 : Enhanced AC-3
    Commercial name             : Dolby Digital Plus
    Codec ID                    : A_EAC3
    Duration                    : 1 h 29 min
    Bit rate mode               : Constant
    Bit rate                    : 640 kb/s
    Channel(s)                  : 6 channels
    Channel layout              : L R C LFE Ls Rs
    Sampling rate               : 48.0 kHz
    Frame rate                  : 31.250 FPS (1536 SPF)
    Compression mode            : Lossy
    Stream size                 : 411 MiB (5%)
    Title                       : Portugués [CinemaniaHDD]
    Language                    : Portuguese
    Service kind                : Complete Main
    Default                     : No
    Forced                      : No

    Audio #4
    ID                          : 5
    Format                      : E-AC-3
    Format/Info                 : Enhanced AC-3
    Commercial name             : Dolby Digital Plus
    Codec ID                    : A_EAC3
    Duration                    : 1 h 29 min
    Bit rate mode               : Constant
    Bit rate                    : 640 kb/s
    Channel(s)                  : 6 channels
    Channel layout              : L R C LFE Ls Rs
    Sampling rate               : 48.0 kHz
    Frame rate                  : 31.250 FPS (1536 SPF)
    Compression mode            : Lossy
    Stream size                 : 411 MiB (5%)
    Title                       : Inglés [CinemaniaHDD]
    Language                    : English
    Service kind                : Complete Main
    Default                     : No
    Forced                      : No

    Text #1
    ID                          : 6
    Format                      : UTF-8
    Codec ID                    : S_TEXT/UTF8
    Codec ID/Info               : UTF-8 Plain Text
    Duration                    : 1 h 29 min
    Bit rate                    : 104 b/s
    Count of elements           : 1847
    Stream size                 : 68.6 KiB (0%)
    Title                       : Español latino [CC] [CinemaniaHDD]
    Language                    : Spanish
    Default                     : No
    Forced                      : No

    Text #2
    ID                          : 7
    Format                      : UTF-8
    Codec ID                    : S_TEXT/UTF8
    Codec ID/Info               : UTF-8 Plain Text
    Duration                    : 1 h 29 min
    Bit rate                    : 97 b/s
    Count of elements           : 1847
    Stream size                 : 64.0 KiB (0%)
    Title                       : Portugués [CC] [CinemaniaHDD]
    Language                    : Portuguese
    Default                     : No
    Forced                      : No

    Text #3
    ID                          : 8
    Format                      : UTF-8
    Codec ID                    : S_TEXT/UTF8
    Codec ID/Info               : UTF-8 Plain Text
    Duration                    : 1 h 29 min
    Bit rate                    : 96 b/s
    Count of elements           : 1845
    Stream size                 : 63.2 KiB (0%)
    Title                       : Inglés [CC] [CinemaniaHDD]
    Language                    : English
    Default                     : No
    Forced                      : No

    Menu
    00:00:00.000                : :Studio Logo
    00:01:25.000                : :Title Sequence
    00:01:56.000                : :Scene 3
    00:09:28.000                : :Scene 4
    00:10:51.000                : :Scene 5
    00:15:44.000                : :Scene 6
    00:18:39.000                : :Scene 7
    00:22:45.000                : :Scene 8
    00:30:26.000                : :Scene 9
    00:33:58.000                : :Scene 10
    00:35:04.000                : :Scene 11
    00:37:40.000                : :Scene 12
    00:40:06.000                : :Scene 13
    00:45:24.000                : :Scene 14
    00:50:09.000                : :Scene 15
    00:57:18.000                : :Scene 16
    00:59:17.000                : :Scene 17
    01:07:57.000                : :Scene 18
    01:16:43.000                : :Scene 19
    01:19:49.000                : :Scene 20
    01:23:45.000                : :Scene 21
    01:25:49.000                : :End Credits

     

  • Peso: 7.49 GiB

Sinopsis

Paulinho Gogo narra sus historias en un banco de parque mientras espera la llegada de su amada Nena Juju. Recuerda la infancia pobre; los muchos trabajos que tuvo en su vida, su paso por el Ejército, sus aventuras con sus amigos Chico Verija, Biricotico, Helino Gastritis y Celso Bigorna, así como todas las idas y venidas de su romance con Juju.

Español Latino E-AC3 + AC3 5.1 – Portugues E-AC3 5.1 – Ingles E-AC3 5.1

Ficha técnica

  • Titulo original: No Gogó do Paulinho
  • Fecha de lanzamiento: 09-04-2020 (Brazil)
  • Director: Roberto Santucci
  • Género: Comedia

Video trailer de la película

Enlaces de descarga

Rip de Bluray

Descargar No Gogó do Paulinho (2020) AMZN WEB-DL 1080p Latino




Aportes de DPeliculasHDmega la pass es:dpeliculashdmega.org Aportes de CinemaniaHD la pass es:cinemaniahdd.com
Guardado en : Comedia

Películas relacionadas

descargar No Gogó do Paulinho (2020) AMZN WEB-DL 1080p Latino WEBDL 1080p gratis, No Gogó do Paulinho (2020) AMZN WEB-DL 1080p Latino WEBDL mega 1 link, No Gogó do Paulinho (2020) AMZN WEB-DL 1080p Latino WEBDL pelicula completa, descargar No Gogó do Paulinho (2020) AMZN WEB-DL 1080p Latino WEBDL gratis en mega.

No Gogó do Paulinho (2020) AMZN WEB-DL 1080p Latino pelicula full hd, No Gogó do Paulinho (2020) AMZN WEB-DL 1080p Latino mega latino, No Gogó do Paulinho (2020) AMZN WEB-DL 1080p Latino 4k latino, No Gogó do Paulinho (2020) AMZN WEB-DL 1080p Latino pelicula completa, No Gogó do Paulinho (2020) AMZN WEB-DL 1080p Latino descargar gratis, descargar No Gogó do Paulinho (2020) AMZN WEB-DL 1080p Latino pelicula latino, No Gogó do Paulinho (2020) AMZN WEB-DL 1080p Latino 1 link mega, No Gogó do Paulinho (2020) AMZN WEB-DL 1080p Latino 1 link google drive, No Gogó do Paulinho (2020) AMZN WEB-DL 1080p Latino hd 1080p latino.
Comentarios 0