No Game no Life Zero (2017) Full 1080p Latino

1.440 vistas
1 estrella2 estrellas3 estrellas4 estrellas5 estrellas (5 votos, promedio: 5,00 de 5)
Cargando…

Información de No Game no Life Zero (2017) Full 1080p Latino

Datos de la película

  • Calidad: Full 1080p
  • Audio: Se especifica abajo de la Sinopsis
  • Subtitulos: Español Latino PGS - Ingles PGS
  • Resolución: 1920x0108p
  • Formato: MKV
  • Codec: H.264
  • Encoder: Dracarys
  • Mediainfo: Clic para Mostrar Datos Ver
  • Format                                   : Matroska
    Format version                           : Version 4 / Version 2
    File size                                : 5.78 GiB
    Duration                                 : 1 h 47 min
    Overall bit rate                         : 7 679 kb/s
    Movie name                               : CinemaniaHDD.net
    Encoded date                             : UTC 2018-08-15 03:32:15 / UTC 2018-08-11T02:23:40Z
    Writing application                      : mkvmerge v15.0.0 ('Duel with the Devil') 64-bit
    Writing library                          : libebml v1.3.5 + libmatroska v1.4.5 / Lavf57.7.2

    Video
    ID                                       : 1
    Format                                   : AVC
    Format/Info                              : Advanced Video Codec
    Format profile                           : High@L4.1
    Format settings                          : CABAC / 4 Ref Frames
    Format settings, CABAC                   : Yes
    Format settings, RefFrames               : 4 frames
    Codec ID                                 : V_MPEG4/ISO/AVC
    Duration                                 : 1 h 47 min
    Bit rate                                 : 2 999 kb/s
    Width                                    : 1 920 pixels
    Height                                   : 1 080 pixels
    Display aspect ratio                     : 16:9
    Frame rate mode                          : Constant
    Frame rate                               : 23.976 (24000/1001) FPS
    Color space                              : YUV
    Chroma subsampling                       : 4:2:0
    Bit depth                                : 8 bits
    Scan type                                : Progressive
    Bits/(Pixel*Frame)                       : 0.060
    Stream size                              : 2.26 GiB (39%)
    Title                                    : No Game no Life Zero (2017) Full 1080p Latino
    Writing library                          : x264 core 148 r2708 86b7198
    Encoding settings                        : cabac=1 / ref=4 / deblock=1:0:0 / analyse=0x3:0x133 / me=esa / subme=10 / psy=1 / psy_rd=1.00:0.00 / mixed_ref=1 / me_range=24 / chroma_me=1 / trellis=2 / 8x8dct=1 / cqm=0 / deadzone=21,11 / fast_pskip=1 / chroma_qp_offset=-2 / threads=34 / lookahead_threads=5 / sliced_threads=0 / nr=0 / decimate=1 / interlaced=0 / bluray_compat=0 / constrained_intra=0 / bframes=8 / b_pyramid=2 / b_adapt=2 / b_bias=0 / direct=3 / weightb=1 / open_gop=0 / weightp=2 / keyint=240 / keyint_min=24 / scenecut=40 / intra_refresh=0 / rc_lookahead=60 / rc=crf / mbtree=1 / crf=20.0 / qcomp=0.60 / qpmin=0 / qpmax=69 / qpstep=4 / vbv_maxrate=62500 / vbv_bufsize=78125 / crf_max=0.0 / nal_hrd=none / filler=0 / ip_ratio=1.40 / aq=1:1.00
    Language                                 : Japanese
    Default                                  : Yes
    Forced                                   : No
    Color range                              : Limited
    Color primaries                          : BT.709
    Transfer characteristics                 : BT.709
    Matrix coefficients                      : BT.709
    Statistics Tags Issue                    : mkvmerge v15.0.0 ('Duel with the Devil') 64-bit 2018-08-15 03:32:15 / mkvmerge v15.0.0 ('Duel with the Devil') 64-bit 2018-08-15 03:32:15 / UTC 2018-08-11T02:23:40Z
    FromStats_BitRate                        : 3181593
    FromStats_Duration                       : 01:47:50.464000000
    FromStats_FrameCount                     : 155136
    FromStats_StreamSize                     : 2573298527

    Audio #1
    ID                                       : 2
    Format                                   : DTS
    Format/Info                              : Digital Theater Systems
    Mode                                     : 16
    Format settings, Endianness              : Big
    Codec ID                                 : A_DTS
    Duration                                 : 1 h 47 min
    Bit rate mode                            : Constant
    Bit rate                                 : 1 509 kb/s
    Channel(s)                               : 6 channels
    Channel positions                        : Front: L C R, Side: L R, LFE
    Sampling rate                            : 48.0 kHz
    Frame rate                               : 93.750 FPS (512 SPF)
    Bit depth                                : 24 bits
    Compression mode                         : Lossy
    Delay relative to video                  : 43 ms
    Stream size                              : 1.14 GiB (20%)
    Language                                 : Spanish
    Default                                  : No
    Forced                                   : No
    Statistics Tags Issue                    : mkvmerge v15.0.0 ('Duel with the Devil') 64-bit 2018-08-15 03:32:15 / mkvmerge v15.0.0 ('Duel with the Devil') 64-bit 2018-08-15 03:32:15 / UTC 2018-08-11T02:23:40Z
    FromStats_BitRate                        : 1508999
    FromStats_Duration                       : 01:46:42.315000000
    FromStats_FrameCount                     : 600217
    FromStats_StreamSize                     : 1207636604

    Audio #2
    ID                                       : 3
    Format                                   : DTS
    Format/Info                              : Digital Theater Systems
    Mode                                     : 16
    Format settings, Endianness              : Big
    Codec ID                                 : A_DTS
    Duration                                 : 1 h 47 min
    Bit rate mode                            : Constant
    Bit rate                                 : 1 509 kb/s
    Channel(s)                               : 6 channels
    Channel positions                        : Front: L C R, Side: L R, LFE
    Sampling rate                            : 48.0 kHz
    Frame rate                               : 93.750 FPS (512 SPF)
    Bit depth                                : 24 bits
    Compression mode                         : Lossy
    Delay relative to video                  : 53 ms
    Stream size                              : 1.14 GiB (20%)
    Language                                 : Japanese
    Default                                  : No
    Forced                                   : No
    Statistics Tags Issue                    : mkvmerge v15.0.0 ('Duel with the Devil') 64-bit 2018-08-15 03:32:15 / mkvmerge v15.0.0 ('Duel with the Devil') 64-bit 2018-08-15 03:32:15 / UTC 2018-08-11T02:23:40Z
    FromStats_BitRate                        : 1508999
    FromStats_Duration                       : 01:46:42.305000000
    FromStats_FrameCount                     : 600216
    FromStats_StreamSize                     : 1207634592

    Audio #3
    ID                                       : 4
    Format                                   : DTS
    Format/Info                              : Digital Theater Systems
    Mode                                     : 16
    Format settings, Endianness              : Big
    Codec ID                                 : A_DTS
    Duration                                 : 1 h 47 min
    Bit rate mode                            : Constant
    Bit rate                                 : 1 509 kb/s
    Channel(s)                               : 6 channels
    Channel positions                        : Front: L C R, Side: L R, LFE
    Sampling rate                            : 48.0 kHz
    Frame rate                               : 93.750 FPS (512 SPF)
    Bit depth                                : 24 bits
    Compression mode                         : Lossy
    Delay relative to video                  : 53 ms
    Stream size                              : 1.14 GiB (20%)
    Language                                 : English
    Default                                  : Yes
    Forced                                   : No
    Statistics Tags Issue                    : mkvmerge v15.0.0 ('Duel with the Devil') 64-bit 2018-08-15 03:32:15 / mkvmerge v15.0.0 ('Duel with the Devil') 64-bit 2018-08-15 03:32:15 / UTC 2018-08-11T02:23:40Z
    FromStats_BitRate                        : 1508999
    FromStats_Duration                       : 01:46:42.305000000
    FromStats_FrameCount                     : 600216
    FromStats_StreamSize                     : 1207634592

    Text #1
    ID                                       : 5
    Format                                   : PGS
    Muxing mode                              : zlib
    Codec ID                                 : S_HDMV/PGS
    Codec ID/Info                            : Picture based subtitle format used on BDs/HD-DVDs
    Language                                 : English
    Default                                  : No
    Forced                                   : No
    Statistics Tags Issue                    : mkvmerge v15.0.0 ('Duel with the Devil') 64-bit 2018-08-15 03:32:15 / mkvmerge v15.0.0 ('Duel with the Devil') 64-bit 2018-08-15 03:32:15 / UTC 2018-08-11T02:23:40Z
    FromStats_BitRate                        : 2700
    FromStats_Duration                       : 01:43:23.290000000
    FromStats_FrameCount                     : 87
    FromStats_StreamSize                     : 2094333

    Text #2
    ID                                       : 6
    Format                                   : PGS
    Muxing mode                              : zlib
    Codec ID                                 : S_HDMV/PGS
    Codec ID/Info                            : Picture based subtitle format used on BDs/HD-DVDs
    Language                                 : Spanish
    Default                                  : No
    Forced                                   : No
    Statistics Tags Issue                    : mkvmerge v15.0.0 ('Duel with the Devil') 64-bit 2018-08-15 03:32:15 / mkvmerge v15.0.0 ('Duel with the Devil') 64-bit 2018-08-15 03:32:15 / UTC 2018-08-11T02:23:40Z
    FromStats_BitRate                        : 2929
    FromStats_Duration                       : 01:43:23.290000000
    FromStats_FrameCount                     : 87
    FromStats_StreamSize                     : 2271951

    Text #3
    ID                                       : 7
    Format                                   : PGS
    Muxing mode                              : zlib
    Codec ID                                 : S_HDMV/PGS
    Codec ID/Info                            : Picture based subtitle format used on BDs/HD-DVDs
    Title                                    : Forzados
    Language                                 : Spanish
    Default                                  : Yes
    Forced                                   : Yes
    Statistics Tags Issue                    : mkvmerge v15.0.0 ('Duel with the Devil') 64-bit 2018-08-15 03:32:15 / mkvmerge v15.0.0 ('Duel with the Devil') 64-bit 2018-08-15 03:32:15 / UTC 2018-08-11T02:23:40Z
    FromStats_BitRate                        : 51342
    FromStats_Duration                       : 01:45:47.393000000
    FromStats_FrameCount                     : 2467
    FromStats_StreamSize                     : 40736244

    Menu
    00:00:00.000                             : :Chapter 1
    00:00:19.019                             : :Chapter 2
    00:02:57.886                             : :Chapter 3
    00:05:05.764                             : :Chapter 4
    00:10:05.897                             : :Chapter 5
    00:14:16.189                             : :Chapter 6
    00:19:33.547                             : :Chapter 7
    00:28:49.478                             : :Chapter 8
    00:33:18.997                             : :Chapter 9
    00:38:25.094                             : :Chapter 10
    00:42:20.455                             : :Chapter 11
    00:44:23.286                             : :Chapter 12
    00:51:03.394                             : :Chapter 13
    00:58:42.519                             : :Chapter 14
    01:04:35.121                             : :Chapter 15
    01:10:27.306                             : :Chapter 16
    01:13:05.381                             : :Chapter 17
    01:24:53.547                             : :Chapter 18
    01:28:35.769                             : :Chapter 19
    01:38:36.077                             : :Chapter 20
    01:41:11.566                             : :Chapter 21
    01:46:20.374                             : :Chapter 22

  • Peso: 5.78 GiB

Sinopsis

Seis mil años antes de que Sora y Shiro fuesen un parpadeo en la historia de Disboard, la guerra consumió la tierra, desgarrando los cielos, destruyendo estrellas e incluso amenazando con aniquilar a la raza humana. En medio del caos y la destrucción, un joven llamado Riku conduce a la humanidad hacia el mañana en que creía su corazón. Un día, en las ruinas de una ciudad de los elfos, conoce a Shuvi, una mujer exiliada llamada “Ex-machina” que le pide que enseñe ella lo que significa tener un corazón humano.

 

Latino DTS 5.1 Bluray – Japones DTS 5.1 Bluray – Ingles DTS 5.1 Bluray

Ficha técnica

Video trailer de la película

Enlaces de descarga

Rip de Bluray

Descargar No Game no Life Zero (2017) Full 1080p Latino




Aportes de DPeliculasHDmega la pass es:dpeliculashdmega.org Aportes de CinemaniaHD la pass es:cinemaniahdd.com

Películas relacionadas

  • Ni en tus sueños (2010) Full 1080p Latino

    2010
    Ni en tus sueños (2010) Full 1080p Latino

    0.0 1h 44m 2010

    Descargar Ni en tus sueños (2010) Full 1080p Latino, Mega, Google Drive. Kirk (Jay Baruchel, "Tropic...

    Director: Richard L. Fox

    Género: Comedia

    Actores: Yan Xi

  • Ni en tus sueños (2010) 1080p Latino

    2010
    Ni en tus sueños (2010) 1080p Latino

    0.0 1h 44m 2010

    Descargar Ni en tus sueños (2010) 1080p Latino, Mega, Google Drive. Kirk (Jay Baruchel, "Tropic Thunder")...

    Director: Richard L. Fox

    Género: Comedia

    Actores: Yan Xi

  • La Chica de La Capa Roja (2011) Full 1080p Latino

    2011
    La Chica de La Capa Roja (2011) Full 1080p Latino

    4.7 1h 40m 2011

    Descargar La Chica de La Capa Roja (2011) Full 1080p Latino, Mega, Google Drive. La joven Valerie se...

    Director: Kimi Webber

    Género: Fantasía

    Actores: Virginia Madsen

  • La Chica de La Capa Roja (2011) 1080p Latino

    2011
    La Chica de La Capa Roja (2011) 1080p Latino

    0.0 1h 40m 2011

    Descargar La Chica de La Capa Roja (2011) 1080p Latino, Mega, Google Drive. La joven Valerie se encuentra...

    Director: Kimi Webber

    Género: Fantasía

    Actores: Virginia Madsen

Comentarios 3
  • Nephilim - 15 agosto, 2018

    me pregunto si ahora pondran el propio tag solo para las peliculas de monos chinos

  • darlling - 15 agosto, 2018

    me pregunto si ahora pondran el propio tag solo para las peliculas de monos chinos

  • ATERRADO - 15 agosto, 2018

    Gracias!!! Y en BD RIP mejor! 10/10