×

¿Problemas para descargar con Mozilla, EDGE? Deshabilita la opción "Abrir vinculos en una pestaña nueva" tal como lo muestra ésta imagen.

No Escape (2023) Primera Temporada AMZN WEB-DL 1080p Latino

136 vistas

Información de No Escape (2023) Primera Temporada AMZN WEB-DL 1080p Latino

Datos de la película

  • Calidad: 1080p
  • Audio: Español Latino AC3 2.0 WEB-DL - Ingles AC3 2.0 WEB-DL
  • Subtitulos: Español Latino SRT- FORZADOS SRT
  • Resolución: 1920x1080
  • Formato: MKV
  • Codec: H.264
  • Encoder: cinemaniahdd
  • Mediainfo: Clic para Mostrar Datos Ver
  • No Escape T01E07 AMZN WEB-DL 1080p Latino [CNMNHDD].mkv
    Format                      : Matroska
    Format version              : Version 4
    File size                   : 3.67 GiB
    Duration                    : 54 min 57 s
    Overall bit rate            : 9 561 kb/s
    Movie name                  : No Escape S01E07 - No Escape [1080p] - CinemaniaHDD.Net
    Encoded date                : UTC 2023-09-28 22:48:41
    Writing application         : mkvmerge v56.1.0 ('My Friend') 64-bit
    Writing library             : libebml v1.4.2 + libmatroska v1.6.4

    Video
    ID                          : 1
    Format                      : AVC
    Format/Info                 : Advanced Video Codec
    Format profile              : High@L4
    Format settings             : CABAC / 4 Ref Frames
    Format settings, CABAC      : Yes
    Format settings, Reference  : 4 frames
    Codec ID                    : V_MPEG4/ISO/AVC
    Duration                    : 54 min 57 s
    Bit rate mode               : Constant
    Bit rate                    : 8 727 kb/s
    Nominal bit rate            : 10 000 kb/s
    Width                       : 1 920 pixels
    Height                      : 1 080 pixels
    Display aspect ratio        : 16:9
    Frame rate mode             : Constant
    Frame rate                  : 23.976 (24000/1001) FPS
    Color space                 : YUV
    Chroma subsampling          : 4:2:0
    Bit depth                   : 8 bits
    Scan type                   : Progressive
    Bits/(Pixel*Frame)          : 0.176
    Stream size                 : 3.35 GiB (91%)
    Title                       : CinemaniaHDD
    Default                     : Yes
    Forced                      : No
    Color range                 : Limited
    Color primaries             : BT.709
    Transfer characteristics    : BT.709
    Matrix coefficients         : BT.709

    Audio #1
    ID                          : 2
    Format                      : AC-3
    Format/Info                 : Audio Coding 3
    Commercial name             : Dolby Digital
    Codec ID                    : A_AC3
    Duration                    : 54 min 57 s
    Bit rate mode               : Constant
    Bit rate                    : 384 kb/s
    Channel(s)                  : 2 channels
    Channel layout              : L R
    Sampling rate               : 48.0 kHz
    Frame rate                  : 31.250 FPS (1536 SPF)
    Compression mode            : Lossy
    Stream size                 : 151 MiB (4%)
    Title                       : Español Latino [CinemaniaHDD]
    Language                    : Spanish
    Service kind                : Complete Main
    Default                     : Yes
    Forced                      : No

    Audio #2
    ID                          : 3
    Format                      : E-AC-3
    Format/Info                 : Enhanced AC-3
    Commercial name             : Dolby Digital Plus
    Codec ID                    : A_EAC3
    Duration                    : 54 min 57 s
    Bit rate mode               : Constant
    Bit rate                    : 224 kb/s
    Channel(s)                  : 2 channels
    Channel layout              : L R
    Sampling rate               : 48.0 kHz
    Frame rate                  : 31.250 FPS (1536 SPF)
    Compression mode            : Lossy
    Stream size                 : 88.1 MiB (2%)
    Title                       : Español latino / E-AC3 [CinemaniaHDD]
    Language                    : Spanish
    Service kind                : Complete Main
    Default                     : No
    Forced                      : No

    Audio #3
    ID                          : 4
    Format                      : E-AC-3
    Format/Info                 : Enhanced AC-3
    Commercial name             : Dolby Digital Plus
    Codec ID                    : A_EAC3
    Duration                    : 54 min 57 s
    Bit rate mode               : Constant
    Bit rate                    : 224 kb/s
    Channel(s)                  : 2 channels
    Channel layout              : L R
    Sampling rate               : 48.0 kHz
    Frame rate                  : 31.250 FPS (1536 SPF)
    Compression mode            : Lossy
    Stream size                 : 88.1 MiB (2%)
    Title                       : Inglés [CinemaniaHDD]
    Language                    : English
    Service kind                : Complete Main
    Default                     : No
    Forced                      : No

    Text #1
    ID                          : 5
    Format                      : UTF-8
    Codec ID                    : S_TEXT/UTF8
    Codec ID/Info               : UTF-8 Plain Text
    Duration                    : 47 min 21 s
    Bit rate                    : 1 b/s
    Count of elements           : 11
    Stream size                 : 361 Bytes (0%)
    Title                       : Forzados [CinemaniaHDD]
    Language                    : Spanish
    Default                     : Yes
    Forced                      : Yes

    Text #2
    ID                          : 6
    Format                      : UTF-8
    Codec ID                    : S_TEXT/UTF8
    Codec ID/Info               : UTF-8 Plain Text
    Duration                    : 53 min 31 s
    Bit rate                    : 36 b/s
    Count of elements           : 583
    Stream size                 : 14.4 KiB (0%)
    Title                       : Español Latino [CinemaniaHDD]
    Language                    : Spanish
    Default                     : No
    Forced                      : No

     

  • Peso: 3.67 GiB Aprox ---- 27 GiB in 7 Chapters.

Sinopsis

Las británicas Kitty y Lana, de 19 años, se reinventan y encuentran refugio en un yate en Filipinas llamado The Blue. Pero caen en peligros mucho mayores que aquellos de los que intentaban escapar.

Ficha técnica

  • Titulo original: No Escape
  • Fecha de lanzamiento: 18-05-2023 (GB)
  • Género: Drama, Series

Video trailer de la película

Enlaces de descarga

Rip de Bluray

Descargar No Escape (2023) Primera Temporada AMZN WEB-DL 1080p Latino




Aportes de DPeliculasHDmega la pass es:dpeliculashdmega.org Aportes de CinemaniaHD la pass es:cinemaniahdd.com Aportes recientes:cinemaniahdd.net
Guardado en : Drama , Series

Películas relacionadas

descargar No Escape (2023) Primera Temporada AMZN WEB-DL 1080p Latino 1080p 1080p gratis, No Escape (2023) Primera Temporada AMZN WEB-DL 1080p Latino 1080p mega 1 link, No Escape (2023) Primera Temporada AMZN WEB-DL 1080p Latino 1080p serie completa, descargar No Escape (2023) Primera Temporada AMZN WEB-DL 1080p Latino 1080p gratis en mega.

No Escape (2023) Primera Temporada AMZN WEB-DL 1080p Latino pelicula full hd, No Escape (2023) Primera Temporada AMZN WEB-DL 1080p Latino mega latino, No Escape (2023) Primera Temporada AMZN WEB-DL 1080p Latino 4k latino, No Escape (2023) Primera Temporada AMZN WEB-DL 1080p Latino pelicula completa, No Escape (2023) Primera Temporada AMZN WEB-DL 1080p Latino descargar gratis, descargar No Escape (2023) Primera Temporada AMZN WEB-DL 1080p Latino pelicula latino, No Escape (2023) Primera Temporada AMZN WEB-DL 1080p Latino 1 link mega, No Escape (2023) Primera Temporada AMZN WEB-DL 1080p Latino 1 link google drive, No Escape (2023) Primera Temporada AMZN WEB-DL 1080p Latino hd 1080p latino.
Comentarios 0