×

¿Problemas para descargar con Mozilla, EDGE? Deshabilita la opción "Abrir vinculos en una pestaña nueva" tal como lo muestra ésta imagen.

No Dejes De Mirarme (2018) REMUX 1080p Latino

506 vistas

Información de No Dejes De Mirarme (2018) REMUX 1080p Latino

Datos de la película

  • Calidad: Full 1080p
  • Audio: Se especifica abajo de la Sinopsis
  • Subtitulos: Español Latino SRT- FORZADOS SRT
  • Resolución: 1920x1080p
  • Formato: MKV
  • Codec: H.264
  • Encoder: Melkor
  • Mediainfo: Clic para Mostrar Datos Ver
  • No Dejes De Mirarme (2018) REMUX 1080p Latino.mkv
    Format                      : Matroska
    Format version              : Version 4
    File size                   : 38.4 GiB
    Duration                    : 3 h 9 min
    Overall bit rate mode       : Variable
    Overall bit rate            : 29.1 Mb/s
    Movie name                  : Never Look Away (2018) CinemaniaHDD.Net
    Encoded date                : UTC 2022-06-05 20:21:20
    Writing application         : mkvmerge v56.1.0 ('My Friend') 64-bit
    Writing library             : libebml v1.4.2 + libmatroska v1.6.4
    Attachments                 : CINEMANIAHD.png

    Video
    ID                          : 1
    Format                      : AVC
    Format/Info                 : Advanced Video Codec
    Format profile              : High@L4.1
    Format settings             : CABAC / 3 Ref Frames
    Format settings, CABAC      : Yes
    Format settings, Reference  : 3 frames
    Codec ID                    : V_MPEG4/ISO/AVC
    Duration                    : 3 h 9 min
    Bit rate mode               : Variable
    Bit rate                    : 26.7 Mb/s
    Maximum bit rate            : 40.0 Mb/s
    Width                       : 1 920 pixels
    Height                      : 1 080 pixels
    Display aspect ratio        : 16:9
    Frame rate mode             : Constant
    Frame rate                  : 23.976 (24000/1001) FPS
    Color space                 : YUV
    Chroma subsampling          : 4:2:0
    Bit depth                   : 8 bits
    Scan type                   : Progressive
    Bits/(Pixel*Frame)          : 0.537
    Stream size                 : 34.2 GiB (89%)
    Title                       : REMUX HD1080p [CinemaniaHDD]
    Writing library             : x264 core 148 r2694bm 3b70645
    Encoding settings           : cabac=1 / ref=4 / deblock=1:0:0 / analyse=0x3:0x133 / me=umh / subme=9 / psy=1 / psy_rd=1.00:0.00 / mixed_ref=1 / me_range=16 / chroma_me=1 / trellis=2 / 8x8dct=1 / cqm=0 / deadzone=21,11 / fast_pskip=1 / chroma_qp_offset=-2 / threads=30 / lookahead_threads=2 / sliced_threads=0 / slices=4 / nr=0 / decimate=1 / interlaced=0 / bluray_compat=1 / constrained_intra=0 / bframes=3 / b_pyramid=1 / b_adapt=2 / b_bias=0 / direct=3 / weightb=1 / open_gop=1 / weightp=1 / keyint=24 / keyint_min=1 / scenecut=40 / intra_refresh=0 / rc_lookahead=24 / rc=abr / mbtree=1 / bitrate=26700 / ratetol=1.0 / qcomp=0.60 / qpmin=0 / qpmax=69 / qpstep=4 / vbv_maxrate=40000 / vbv_bufsize=30000 / nal_hrd=vbr / filler=0 / ip_ratio=1.40 / aq=1:1.00
    Default                     : Yes
    Forced                      : Yes
    Color range                 : Limited
    Color primaries             : BT.709
    Transfer characteristics    : BT.709
    Matrix coefficients         : BT.709

    Audio #1
    ID                          : 2
    Format                      : AC-3
    Format/Info                 : Audio Coding 3
    Commercial name             : Dolby Digital
    Codec ID                    : A_AC3
    Duration                    : 3 h 9 min
    Bit rate mode               : Constant
    Bit rate                    : 640 kb/s
    Channel(s)                  : 6 channels
    Channel layout              : L R C LFE Ls Rs
    Sampling rate               : 48.0 kHz
    Frame rate                  : 31.250 FPS (1536 SPF)
    Compression mode            : Lossy
    Stream size                 : 865 MiB (2%)
    Title                       : Español Latino AC3 [CinemaniaHDD]
    Language                    : Spanish
    Service kind                : Complete Main
    Default                     : Yes
    Forced                      : Yes

    Audio #2
    ID                          : 3
    Format                      : DTS XLL
    Format/Info                 : Digital Theater Systems
    Commercial name             : DTS-HD Master Audio
    Codec ID                    : A_DTS
    Duration                    : 3 h 9 min
    Bit rate mode               : Variable
    Bit rate                    : 1 887 kb/s
    Channel(s)                  : 6 channels
    Channel layout              : C L R Ls Rs LFE
    Sampling rate               : 48.0 kHz
    Frame rate                  : 93.750 FPS (512 SPF)
    Bit depth                   : 16 bits
    Compression mode            : Lossless
    Stream size                 : 2.49 GiB (6%)
    Title                       : Aleman [CinemaniaHDD]
    Language                    : German
    Default                     : No
    Forced                      : No

    Audio #3
    ID                          : 4
    Format                      : E-AC-3
    Format/Info                 : Enhanced AC-3
    Commercial name             : Dolby Digital Plus
    Codec ID                    : A_EAC3
    Duration                    : 3 h 9 min
    Bit rate mode               : Constant
    Bit rate                    : 640 kb/s
    Channel(s)                  : 6 channels
    Channel layout              : L R C LFE Ls Rs
    Sampling rate               : 48.0 kHz
    Frame rate                  : 31.250 FPS (1536 SPF)
    Compression mode            : Lossy
    Stream size                 : 865 MiB (2%)
    Title                       : Español Latino EAC3 [CinemaniaHDD]
    Language                    : Spanish
    Service kind                : Complete Main
    Default                     : No
    Forced                      : No

    Text #1
    ID                          : 5
    Format                      : UTF-8
    Codec ID                    : S_TEXT/UTF8
    Codec ID/Info               : UTF-8 Plain Text
    Duration                    : 3 h 8 min
    Bit rate                    : 0 b/s
    Count of elements           : 25
    Stream size                 : 666 Bytes (0%)
    Title                       : Forzados-SRT [CinemaniaHDD]
    Language                    : Spanish
    Default                     : Yes
    Forced                      : Yes

    Text #2
    ID                          : 6
    Format                      : UTF-8
    Codec ID                    : S_TEXT/UTF8
    Codec ID/Info               : UTF-8 Plain Text
    Duration                    : 3 h 8 min
    Bit rate                    : 34 b/s
    Count of elements           : 1487
    Stream size                 : 47.6 KiB (0%)
    Title                       : Español-SRT [CinemaniaHDD]
    Language                    : Spanish
    Default                     : No
    Forced                      : No

    Text #3
    ID                          : 7
    Format                      : PGS
    Muxing mode                 : zlib
    Codec ID                    : S_HDMV/PGS
    Codec ID/Info               : Picture based subtitle format used on BDs/HD-DVDs
    Duration                    : 2 h 59 min
    Bit rate                    : 23.6 kb/s
    Count of elements           : 2699
    Stream size                 : 30.3 MiB (0%)
    Title                       : Ingles [CinemaniaHDD]
    Language                    : English
    Default                     : No
    Forced                      : No

    Menu
    00:00:00.000                : Chapter 1
    00:11:19.512                : Chapter 2
    00:20:52.084                : Chapter 3
    00:35:03.935                : Chapter 4
    00:47:32.683                : Chapter 5
    00:58:23.333                : Chapter 6
    01:11:14.270                : Chapter 7
    01:24:26.061                : Chapter 8
    01:35:05.533                : Chapter 9
    01:42:31.145                : Chapter 10
    02:00:02.028                : Chapter 11
    02:10:00.793                : Chapter 12
    02:20:50.359                : Chapter 13
    02:34:51.491                : Chapter 14
    02:46:27.811                : Chapter 15
    02:59:03.733                : Chapter 16

  • Peso: 38.4 GiB

Sinopsis

Descargar No Dejes De Mirarme (2018) REMUX 1080p Latino. Werk ohne Autor, conocida en latinoamerica como No Dejes De Mirarme o en España La sombra del pasado, cuenta la historia de Kurt Barnert un joven estudiante de arte en la Alemania del Este. Está enamorado de su compañera de clase, Ellie. El padre de ella, el Professor Seeband, un famoso médico, no aprueba la relación de su hija y está decidido a destruirla. Lo que ninguno de ellos sabe es que sus vidas están conectadas por un terrible crimen cometido hace décadas.

Español Latino EAC3 5.1 & AC3 5.1 Web – Aleman DTS-HD 5.1 BD
Actualizado con mejor Audio Latino en 5.1!!

Ficha técnica

Video trailer de la película

Enlaces de descarga

Rip de Bluray

Descargar No Dejes De Mirarme (2018) REMUX 1080p Latino




Aportes de DPeliculasHDmega la pass es:dpeliculashdmega.org Aportes de CinemaniaHD la pass es:cinemaniahdd.com
Guardado en : Drama , Remux , Romance , Suspenso

Películas relacionadas

descargar No Dejes De Mirarme (2018) REMUX 1080p Latino Full 1080p 1080p gratis, No Dejes De Mirarme (2018) REMUX 1080p Latino Full 1080p mega 1 link, No Dejes De Mirarme (2018) REMUX 1080p Latino Full 1080p pelicula completa, descargar No Dejes De Mirarme (2018) REMUX 1080p Latino Full 1080p gratis en mega.

No Dejes De Mirarme (2018) REMUX 1080p Latino pelicula full hd, No Dejes De Mirarme (2018) REMUX 1080p Latino mega latino, No Dejes De Mirarme (2018) REMUX 1080p Latino 4k latino, No Dejes De Mirarme (2018) REMUX 1080p Latino pelicula completa, No Dejes De Mirarme (2018) REMUX 1080p Latino descargar gratis, descargar No Dejes De Mirarme (2018) REMUX 1080p Latino pelicula latino, No Dejes De Mirarme (2018) REMUX 1080p Latino 1 link mega, No Dejes De Mirarme (2018) REMUX 1080p Latino 1 link google drive, No Dejes De Mirarme (2018) REMUX 1080p Latino hd 1080p latino.
Comentarios 0