×

¿Problemas para descargar con Mozilla, EDGE? Deshabilita la opción "Abrir vinculos en una pestaña nueva" tal como lo muestra ésta imagen.

No Dejes De Mirarme (2018) HD 1080p Latino

544 vistas

Información de No Dejes De Mirarme (2018) HD 1080p Latino

Datos de la película

  • Calidad: 1080p
  • Audio: Se especifica abajo de la Sinopsis
  • Subtitulos: Español Latino SRT- FORZADOS SRT
  • Resolución: 1920X1038p
  • Formato: MKV
  • Codec: H.264
  • Encoder: CinemaniaHD
  • Mediainfo: Clic para Mostrar Datos Ver
  • No Dejes De Mirarme (2018) HD 1080p Latino.mkv
    Format                      : Matroska
    Format version              : Version 4
    File size                   : 5.96 GiB
    Duration                    : 3 h 9 min
    Overall bit rate            : 4 510 kb/s
    Movie name                  : Werk ohne Autor (2018) CinemaniaHDD.Net
    Encoded date                : UTC 2022-06-05 20:39:08
    Writing application         : mkvmerge v56.1.0 ('My Friend') 64-bit
    Writing library             : libebml v1.4.2 + libmatroska v1.6.4
    Attachments                 : CINEMANIAHD.png

    Video
    ID                          : 1
    Format                      : AVC
    Format/Info                 : Advanced Video Codec
    Format profile              : High@L4.1
    Format settings             : CABAC / 4 Ref Frames
    Format settings, CABAC      : Yes
    Format settings, Reference  : 4 frames
    Codec ID                    : V_MPEG4/ISO/AVC
    Duration                    : 3 h 9 min
    Bit rate                    : 3 500 kb/s
    Width                       : 1 920 pixels
    Height                      : 1 038 pixels
    Display aspect ratio        : 1.85:1
    Frame rate mode             : Constant
    Frame rate                  : 23.976 (24000/1001) FPS
    Color space                 : YUV
    Chroma subsampling          : 4:2:0
    Bit depth                   : 8 bits
    Scan type                   : Progressive
    Bits/(Pixel*Frame)          : 0.073
    Stream size                 : 4.52 GiB (76%)
    Title                       : HD1080p [CinemaniaHDD]
    Writing library             : x264 core 157 r2935 545de2f
    Encoding settings           : cabac=1 / ref=4 / deblock=1:0:0 / analyse=0x3:0x113 / me=hex / subme=8 / psy=1 / psy_rd=1.00:0.00 / mixed_ref=1 / me_range=16 / chroma_me=1 / trellis=2 / 8x8dct=1 / cqm=0 / deadzone=21,11 / fast_pskip=1 / chroma_qp_offset=-2 / threads=24 / lookahead_threads=4 / sliced_threads=0 / nr=0 / decimate=1 / interlaced=0 / bluray_compat=0 / constrained_intra=0 / bframes=3 / b_pyramid=2 / b_adapt=1 / b_bias=0 / direct=3 / weightb=1 / open_gop=0 / weightp=2 / keyint=240 / keyint_min=24 / scenecut=40 / intra_refresh=0 / rc_lookahead=50 / rc=abr / mbtree=1 / bitrate=3500 / ratetol=1.0 / qcomp=0.60 / qpmin=0 / qpmax=69 / qpstep=4 / vbv_maxrate=62500 / vbv_bufsize=78125 / nal_hrd=none / filler=0 / ip_ratio=1.40 / aq=1:1.00
    Default                     : Yes
    Forced                      : Yes
    Color range                 : Limited
    Color primaries             : BT.709
    Transfer characteristics    : BT.709
    Matrix coefficients         : BT.709

    Audio #1
    ID                          : 2
    Format                      : AC-3
    Format/Info                 : Audio Coding 3
    Commercial name             : Dolby Digital
    Codec ID                    : A_AC3
    Duration                    : 3 h 9 min
    Bit rate mode               : Constant
    Bit rate                    : 640 kb/s
    Channel(s)                  : 6 channels
    Channel layout              : L R C LFE Ls Rs
    Sampling rate               : 48.0 kHz
    Frame rate                  : 31.250 FPS (1536 SPF)
    Compression mode            : Lossy
    Delay relative to video     : -5 ms
    Stream size                 : 865 MiB (14%)
    Title                       : Español Latino [CinemaniaHDD]
    Language                    : Spanish
    Service kind                : Complete Main
    Default                     : Yes
    Forced                      : Yes

    Audio #2
    ID                          : 3
    Format                      : AC-3
    Format/Info                 : Audio Coding 3
    Commercial name             : Dolby Digital
    Codec ID                    : A_AC3
    Duration                    : 3 h 9 min
    Bit rate mode               : Constant
    Bit rate                    : 448 kb/s
    Channel(s)                  : 6 channels
    Channel layout              : L R C LFE Ls Rs
    Sampling rate               : 48.0 kHz
    Frame rate                  : 31.250 FPS (1536 SPF)
    Compression mode            : Lossy
    Delay relative to video     : -5 ms
    Stream size                 : 606 MiB (10%)
    Title                       : Aleman [CinemaniaHDD]
    Language                    : German
    Service kind                : Complete Main
    Default                     : No
    Forced                      : No

    Text #1
    ID                          : 4
    Format                      : UTF-8
    Codec ID                    : S_TEXT/UTF8
    Codec ID/Info               : UTF-8 Plain Text
    Duration                    : 3 h 8 min
    Bit rate                    : 0 b/s
    Count of elements           : 25
    Stream size                 : 666 Bytes (0%)
    Title                       : Forzados-SRT [CinemaniaHDD]
    Language                    : Spanish
    Default                     : Yes
    Forced                      : Yes

    Text #2
    ID                          : 5
    Format                      : UTF-8
    Codec ID                    : S_TEXT/UTF8
    Codec ID/Info               : UTF-8 Plain Text
    Duration                    : 3 h 8 min
    Bit rate                    : 34 b/s
    Count of elements           : 1487
    Stream size                 : 47.6 KiB (0%)
    Title                       : Español-SRT [CinemaniaHDD]
    Language                    : Spanish
    Default                     : No
    Forced                      : No

    Menu
    00:00:00.000                : Chapter 01
    00:11:19.136                : Chapter 02
    00:20:51.708                : Chapter 03
    00:35:03.726                : Chapter 04
    00:47:33.225                : Chapter 05
    00:58:23.124                : Chapter 06
    01:11:14.061                : Chapter 07
    01:24:26.603                : Chapter 08
    01:35:05.157                : Chapter 09
    01:42:30.853                : Chapter 10
    02:00:02.320                : Chapter 11
    02:10:00.793                : Chapter 12
    02:20:50.859                : Chapter 13
    02:34:51.573                : Chapter 14
    02:46:28.061                : Chapter 15
    02:59:03.441                : Chapter 16

  • Peso: 5.96 GiB

Sinopsis

Descargar No Dejes De Mirarme (2018) HD 1080p Latino. Werk ohne Autor, conocida en latinoamerica como No Dejes De Mirarme o en España La sombra del pasado, cuenta la historia de Kurt Barnert un joven estudiante de arte en la Alemania del Este. Está enamorado de su compañera de clase, Ellie. El padre de ella, el Professor Seeband, un famoso médico, no aprueba la relación de su hija y está decidido a destruirla. Lo que ninguno de ellos sabe es que sus vidas están conectadas por un terrible crimen cometido hace décadas.

Español Latino AC3 5.1 Web – Aleman AC3 5.1 BD
Actualizado con mejor Audio Latino en 5.1!!

Ficha técnica

Video trailer de la película

Enlaces de descarga

Rip de Bluray

Descargar No Dejes De Mirarme (2018) HD 1080p Latino




Aportes de DPeliculasHDmega la pass es:dpeliculashdmega.org Aportes de CinemaniaHD la pass es:cinemaniahdd.com
Guardado en : Drama , HD 1080p , Romance , Suspenso

Películas relacionadas

  • Zola (2020) HD 1080p Latino

    Zola (2020) HD 1080p Latino

    2020
    Zola (2020) HD 1080p Latino

    1h 26m 2020

    Descargar Zola (2020) HD 1080p Latino. Una camarera accede a acompañar a una bailarina exótica, su...

    Director: Sheri Davani

    Género: Comedia

    Actores: Ts Madison

  • Hocus Pocus: Abracadabra (1993) 1080p Latino

    Hocus Pocus: Abracadabra (1993) 1080p Latino

    1993
    Hocus Pocus: Abracadabra (1993) 1080p Latino

    1h 36m 1993

    Descargar Hocus Pocus: Abracadabra (1993) 1080p Latino. Tres brujas del siglo XII son invocadas durante...

    Director: Kenny Ortega

    Género: Comedia

    Actores: Vinessa Shaw

descargar No Dejes De Mirarme (2018) HD 1080p Latino 1080p 1080p gratis, No Dejes De Mirarme (2018) HD 1080p Latino 1080p mega 1 link, No Dejes De Mirarme (2018) HD 1080p Latino 1080p pelicula completa, descargar No Dejes De Mirarme (2018) HD 1080p Latino 1080p gratis en mega.

No Dejes De Mirarme (2018) HD 1080p Latino pelicula full hd, No Dejes De Mirarme (2018) HD 1080p Latino mega latino, No Dejes De Mirarme (2018) HD 1080p Latino 4k latino, No Dejes De Mirarme (2018) HD 1080p Latino pelicula completa, No Dejes De Mirarme (2018) HD 1080p Latino descargar gratis, descargar No Dejes De Mirarme (2018) HD 1080p Latino pelicula latino, No Dejes De Mirarme (2018) HD 1080p Latino 1 link mega, No Dejes De Mirarme (2018) HD 1080p Latino 1 link google drive, No Dejes De Mirarme (2018) HD 1080p Latino hd 1080p latino.
Comentarios 0