×

¿Problemas para descargar con Mozilla, EDGE? Deshabilita la opción "Abrir vinculos en una pestaña nueva" tal como lo muestra ésta imagen.

Sin Lugar Para Los Debiles (2007) REMUX 1080p Latino

324 vistas

Información de Sin Lugar Para Los Debiles (2007) REMUX 1080p Latino

Datos de la película

  • Calidad: Full 1080p
  • Audio: Se especifica abajo de la Sinopsis
  • Subtitulos: Español Latino PGS - Ingles PGS
  • Resolución: 1920x1080p
  • Formato: MKV
  • Codec: H.264
  • Encoder: CinefiloCool
  • Mediainfo: Clic para Mostrar Datos Ver
  • Sin Lugar Para Los Debiles (2007) REMUX 1080p Latino-CMHDD.mkv
    Format                      : Matroska
    Format version              : Version 4
    File size                   : 24.2 GiB
    Duration                    : 2 h 2 min
    Overall bit rate mode       : Variable
    Overall bit rate            : 28.3 Mb/s
    Movie name                  : No Country For Old Men (2007) CinemaniaHDD.Net
    Encoded date                : UTC 2023-02-23 05:43:42
    Writing application         : mkvmerge v56.1.0 ('My Friend') 64-bit
    Writing library             : libebml v1.4.2 + libmatroska v1.6.4
    Attachments                 : CINEMANIAHD.png

    Video
    ID                          : 1
    Format                      : AVC
    Format/Info                 : Advanced Video Codec
    Format profile              : High@L4.1
    Format settings             : CABAC / 3 Ref Frames
    Format settings, CABAC      : Yes
    Format settings, Reference  : 3 frames
    Codec ID                    : V_MPEG4/ISO/AVC
    Duration                    : 2 h 2 min
    Bit rate mode               : Variable
    Bit rate                    : 23.2 Mb/s
    Maximum bit rate            : 40.0 Mb/s
    Width                       : 1 920 pixels
    Height                      : 1 080 pixels
    Display aspect ratio        : 16:9
    Frame rate mode             : Constant
    Frame rate                  : 23.976 (24000/1001) FPS
    Standard                    : NTSC
    Color space                 : YUV
    Chroma subsampling          : 4:2:0
    Bit depth                   : 8 bits
    Scan type                   : Progressive
    Bits/(Pixel*Frame)          : 0.466
    Stream size                 : 19.8 GiB (82%)
    Title                       : REMUX HD1080p [CinemaniaHDD]
    Default                     : Yes
    Forced                      : Yes
    Color range                 : Limited

    Audio #1
    ID                          : 2
    Format                      : AC-3
    Format/Info                 : Audio Coding 3
    Commercial name             : Dolby Digital
    Codec ID                    : A_AC3
    Duration                    : 2 h 2 min
    Bit rate mode               : Constant
    Bit rate                    : 640 kb/s
    Channel(s)                  : 6 channels
    Channel layout              : L R C LFE Ls Rs
    Sampling rate               : 48.0 kHz
    Frame rate                  : 31.250 FPS (1536 SPF)
    Compression mode            : Lossy
    Stream size                 : 559 MiB (2%)
    Title                       : Español Latino Dub ORG BV/MMX [CinemaniaHDD]
    Language                    : Spanish
    Service kind                : Complete Main
    Default                     : Yes
    Forced                      : Yes

    Audio #2
    ID                          : 3
    Format                      : AC-3
    Format/Info                 : Audio Coding 3
    Commercial name             : Dolby Digital
    Codec ID                    : A_AC3
    Duration                    : 2 h 2 min
    Bit rate mode               : Constant
    Bit rate                    : 640 kb/s
    Channel(s)                  : 6 channels
    Channel layout              : L R C LFE Ls Rs
    Sampling rate               : 48.0 kHz
    Frame rate                  : 31.250 FPS (1536 SPF)
    Compression mode            : Lossy
    Stream size                 : 559 MiB (2%)
    Title                       : Español Latino ReDub PMT [CinemaniaHDD]
    Language                    : Spanish
    Service kind                : Complete Main
    Default                     : No
    Forced                      : No

    Audio #3
    ID                          : 4
    Format                      : DTS XLL
    Format/Info                 : Digital Theater Systems
    Commercial name             : DTS-HD Master Audio
    Codec ID                    : A_DTS
    Duration                    : 2 h 2 min
    Bit rate mode               : Variable
    Bit rate                    : 3 848 kb/s
    Channel(s)                  : 6 channels
    Channel layout              : C L R Ls Rs LFE
    Sampling rate               : 48.0 kHz
    Frame rate                  : 93.750 FPS (512 SPF)
    Bit depth                   : 24 bits
    Compression mode            : Lossless
    Stream size                 : 3.28 GiB (14%)
    Title                       : Ingles [CinemaniaHDD]
    Language                    : English
    Default                     : No
    Forced                      : No

    Text #1
    ID                          : 5
    Format                      : PGS
    Muxing mode                 : zlib
    Codec ID                    : S_HDMV/PGS
    Codec ID/Info               : Picture based subtitle format used on BDs/HD-DVDs
    Duration                    : 1 h 56 min
    Bit rate                    : 16.0 kb/s
    Count of elements           : 1770
    Stream size                 : 13.3 MiB (0%)
    Title                       : Español-PGS [CinemaniaHDD]
    Language                    : Spanish
    Default                     : No
    Forced                      : No

    Text #2
    ID                          : 6
    Format                      : PGS
    Muxing mode                 : zlib
    Codec ID                    : S_HDMV/PGS
    Codec ID/Info               : Picture based subtitle format used on BDs/HD-DVDs
    Duration                    : 1 h 56 min
    Bit rate                    : 17.7 kb/s
    Count of elements           : 2020
    Stream size                 : 14.7 MiB (0%)
    Title                       : Ingles-PGS [CinemaniaHDD]
    Language                    : English
    Default                     : No
    Forced                      : No

    Text #3
    ID                          : 7
    Format                      : UTF-8
    Codec ID                    : S_TEXT/UTF8
    Codec ID/Info               : UTF-8 Plain Text
    Duration                    : 3 s 505 ms
    Bit rate                    : 61 b/s
    Count of elements           : 1
    Stream size                 : 27.0 Bytes (0%)
    Title                       : Forzados-SRT [CinemaniaHDD]
    Language                    : Spanish
    Default                     : Yes
    Forced                      : Yes

    Text #4
    ID                          : 8
    Format                      : UTF-8
    Codec ID                    : S_TEXT/UTF8
    Codec ID/Info               : UTF-8 Plain Text
    Duration                    : 1 h 55 min
    Bit rate                    : 37 b/s
    Count of elements           : 974
    Stream size                 : 31.8 KiB (0%)
    Title                       : Español-SRT [CinemaniaHDD]
    Language                    : Spanish
    Default                     : No
    Forced                      : No

    Menu
    00:00:00.000                : 00:00:00.000
    00:03:44.474                : 00:03:44.474
    00:13:41.904                : 00:13:41.904
    00:20:50.416                : 00:20:50.416
    00:27:52.838                : 00:27:52.838
    00:36:58.383                : 00:36:58.383
    00:41:52.427                : 00:41:52.427
    00:52:17.051                : 00:52:17.051
    01:04:59.312                : 01:04:59.312
    01:13:08.801                : 01:13:08.801
    01:20:05.801                : 01:20:05.801
    01:27:35.876                : 01:27:35.876
    01:34:35.128                : 01:34:35.128
    01:42:21.010                : 01:42:21.010
    01:47:22.645                : 01:47:22.645
    01:56:32.652                : 01:56:32.652

  • Peso: 24.2 GiB

Sinopsis

Descargar Sin Lugar Para Los Debiles (2007) REMUX 1080p Latino. El veterano de la Guerra de Vietnam ahora cazador Llewellyn Moss descubre por casualidad una sangrienta escena en algún lugar de la frontera entre Texas y México, mientras estaba cazando algunos animales en el árido paisaje. Se trata de un negocio que se cerró mal entre contrabandistas de drogas y algunos hombres locales de la zona, provocando la muerte de varios de ellos. Además de los cuerpos y paquetes de heroína, Llewellyn descubre en una maleta algo más de dos millones de dólares. Cuando Llewellyn toma la maleta con el dinero, provoca una reacción en cadena de catastrófica violencia y una carrera sangrienta de los que quieren darle caza.

Audio Español Latino AC3 5.1 Dub Buenavista/Miramax + AC3 5.1 Dub Paramount – Ingles DTS-HD 5.1 Bluray

Ficha técnica

Video trailer de la película

Enlaces de descarga

Rip de Bluray

Descargar Sin Lugar Para Los Debiles (2007) REMUX 1080p Latino


Aportes de DPeliculasHDmega la pass es:dpeliculashdmega.org Aportes de CinemaniaHD la pass es:cinemaniahdd.com Aportes recientes:cinemaniahdd.net
Guardado en : Crimen , Drama , Remux , Suspenso

Películas relacionadas

  • Cómo robar un millón (1966) REMUX 1080p Latino-CMHDD

    Cómo robar un millón (1966) REMUX 1080p Latino-CMHDD

    1966
    Cómo robar un millón (1966) REMUX 1080p Latino-CMHDD

    2h 3m 1966

    Descargar Cómo robar un millón (1966) REMUX 1080p Latino-CMHDD. El padre de Nicole, un legendario coleccionista...

    Director: William Wyler

    Género: Comedia

    Actores: Roger Tréville

  • Milagros Inesperados (1999) 1080p Latino-CMHDD

    Milagros Inesperados (1999) 1080p Latino-CMHDD

    1999
    Milagros Inesperados (1999) 1080p Latino-CMHDD

    3h 9m 1999

    Descargar Milagros Inesperados (1999) 1080p Latino-CMHDD. En el sur de los Estados Unidos, en plena Depresión,...

    Director: Susan Malerstein

    Género: Crimen

    Actores: William Sadler

descargar Sin Lugar Para Los Debiles (2007) REMUX 1080p Latino Full 1080p 1080p gratis, Sin Lugar Para Los Debiles (2007) REMUX 1080p Latino Full 1080p mega 1 link, Sin Lugar Para Los Debiles (2007) REMUX 1080p Latino Full 1080p pelicula completa, descargar Sin Lugar Para Los Debiles (2007) REMUX 1080p Latino Full 1080p gratis en mega.

Sin Lugar Para Los Debiles (2007) REMUX 1080p Latino pelicula full hd, Sin Lugar Para Los Debiles (2007) REMUX 1080p Latino mega latino, Sin Lugar Para Los Debiles (2007) REMUX 1080p Latino 4k latino, Sin Lugar Para Los Debiles (2007) REMUX 1080p Latino pelicula completa, Sin Lugar Para Los Debiles (2007) REMUX 1080p Latino descargar gratis, descargar Sin Lugar Para Los Debiles (2007) REMUX 1080p Latino pelicula latino, Sin Lugar Para Los Debiles (2007) REMUX 1080p Latino 1 link mega, Sin Lugar Para Los Debiles (2007) REMUX 1080p Latino 1 link google drive, Sin Lugar Para Los Debiles (2007) REMUX 1080p Latino hd 1080p latino.
Comentarios 0