×

¿Problemas para descargar con Mozilla, EDGE? Deshabilita la opción "Abrir vinculos en una pestaña nueva" tal como lo muestra ésta imagen.

Sin Lugar Para Los Debiles (2007) Full HD 1080p Latino

420 vistas

Información de Sin Lugar Para Los Debiles (2007) Full HD 1080p Latino

Datos de la película

  • Calidad: Full 1080p
  • Audio: Se especifica abajo de la Sinopsis
  • Subtitulos: Español Latino PGS - Ingles PGS
  • Resolución: 1920x1080p
  • Formato: MKV
  • Codec: H.264
  • Encoder: CinefiloCool
  • Mediainfo: Clic para Mostrar Datos Ver
  • Sin Lugar Para Los Debiles (2007) Full HD 1080p Latino-CMHDD.mkv
    Format                      : Matroska
    Format version              : Version 4
    File size                   : 8.89 GiB
    Duration                    : 2 h 2 min
    Overall bit rate            : 10.4 Mb/s
    Movie name                  : No Country For Old Men (2007) CinemaniaHDD.Net
    Encoded date                : UTC 2023-02-23 15:31:33
    Writing application         : mkvmerge v56.1.0 ('My Friend') 64-bit
    Writing library             : libebml v1.4.2 + libmatroska v1.6.4
    Attachments                 : CINEMANIAHD.png

    Video
    ID                          : 1
    Format                      : AVC
    Format/Info                 : Advanced Video Codec
    Format profile              : High@L4.1
    Format settings             : CABAC / 4 Ref Frames
    Format settings, CABAC      : Yes
    Format settings, Reference  : 4 frames
    Codec ID                    : V_MPEG4/ISO/AVC
    Duration                    : 2 h 2 min
    Bit rate                    : 7 616 kb/s
    Width                       : 1 920 pixels
    Height                      : 1 080 pixels
    Display aspect ratio        : 16:9
    Frame rate mode             : Constant
    Frame rate                  : 23.976 (24000/1001) FPS
    Color space                 : YUV
    Chroma subsampling          : 4:2:0
    Bit depth                   : 8 bits
    Scan type                   : Progressive
    Bits/(Pixel*Frame)          : 0.153
    Stream size                 : 6.50 GiB (73%)
    Title                       : Full HD1080p [CinemaniaHDD]
    Writing library             : x264 core 163 r3059 b684ebe0
    Encoding settings           : cabac=1 / ref=4 / deblock=1:-1:-1 / analyse=0x3:0x133 / me=tesa / subme=11 / psy=1 / psy_rd=1.00:0.15 / mixed_ref=1 / me_range=24 / chroma_me=1 / trellis=2 / 8x8dct=1 / cqm=0 / deadzone=21,11 / fast_pskip=0 / chroma_qp_offset=-3 / threads=24 / lookahead_threads=6 / sliced_threads=0 / nr=0 / decimate=1 / interlaced=0 / bluray_compat=0 / constrained_intra=0 / bframes=16 / b_pyramid=2 / b_adapt=2 / b_bias=0 / direct=3 / weightb=1 / open_gop=0 / weightp=2 / keyint=240 / keyint_min=24 / scenecut=40 / intra_refresh=0 / rc_lookahead=60 / rc=crf / mbtree=1 / crf=19.0 / qcomp=0.60 / qpmin=0 / qpmax=69 / qpstep=4 / vbv_maxrate=62500 / vbv_bufsize=78125 / crf_max=0.0 / nal_hrd=none / filler=0 / ip_ratio=1.40 / aq=1:1.00
    Default                     : Yes
    Forced                      : Yes
    Color range                 : Limited
    Color primaries             : BT.709
    Transfer characteristics    : BT.709
    Matrix coefficients         : BT.709

    Audio #1
    ID                          : 2
    Format                      : AC-3
    Format/Info                 : Audio Coding 3
    Commercial name             : Dolby Digital
    Codec ID                    : A_AC3
    Duration                    : 2 h 2 min
    Bit rate mode               : Constant
    Bit rate                    : 640 kb/s
    Channel(s)                  : 6 channels
    Channel layout              : L R C LFE Ls Rs
    Sampling rate               : 48.0 kHz
    Frame rate                  : 31.250 FPS (1536 SPF)
    Compression mode            : Lossy
    Stream size                 : 559 MiB (6%)
    Title                       : Español Latino Dub ORG BV/MMX [CinemaniaHDD]
    Language                    : Spanish
    Service kind                : Complete Main
    Default                     : Yes
    Forced                      : Yes

    Audio #2
    ID                          : 3
    Format                      : AC-3
    Format/Info                 : Audio Coding 3
    Commercial name             : Dolby Digital
    Codec ID                    : A_AC3
    Duration                    : 2 h 2 min
    Bit rate mode               : Constant
    Bit rate                    : 640 kb/s
    Channel(s)                  : 6 channels
    Channel layout              : L R C LFE Ls Rs
    Sampling rate               : 48.0 kHz
    Frame rate                  : 31.250 FPS (1536 SPF)
    Compression mode            : Lossy
    Stream size                 : 559 MiB (6%)
    Title                       : Español Latino ReDub PMT [CinemaniaHDD]
    Language                    : Spanish
    Service kind                : Complete Main
    Default                     : No
    Forced                      : No

    Audio #3
    ID                          : 4
    Format                      : DTS
    Format/Info                 : Digital Theater Systems
    Codec ID                    : A_DTS
    Duration                    : 2 h 2 min
    Bit rate mode               : Constant
    Bit rate                    : 1 509 kb/s
    Channel(s)                  : 6 channels
    Channel layout              : C L R Ls Rs LFE
    Sampling rate               : 48.0 kHz
    Frame rate                  : 93.750 FPS (512 SPF)
    Bit depth                   : 24 bits
    Compression mode            : Lossy
    Stream size                 : 1.29 GiB (14%)
    Title                       : Ingles [CinemaniaHDD]
    Language                    : English
    Default                     : No
    Forced                      : No

    Text #1
    ID                          : 5
    Format                      : PGS
    Muxing mode                 : zlib
    Codec ID                    : S_HDMV/PGS
    Codec ID/Info               : Picture based subtitle format used on BDs/HD-DVDs
    Duration                    : 1 h 56 min
    Bit rate                    : 16.0 kb/s
    Count of elements           : 1770
    Stream size                 : 13.3 MiB (0%)
    Title                       : Español-PGS [CinemaniaHDD]
    Language                    : Spanish
    Default                     : No
    Forced                      : No

    Text #2
    ID                          : 6
    Format                      : PGS
    Muxing mode                 : zlib
    Codec ID                    : S_HDMV/PGS
    Codec ID/Info               : Picture based subtitle format used on BDs/HD-DVDs
    Duration                    : 1 h 56 min
    Bit rate                    : 17.7 kb/s
    Count of elements           : 2020
    Stream size                 : 14.7 MiB (0%)
    Title                       : Ingles-PGS [CinemaniaHDD]
    Language                    : English
    Default                     : No
    Forced                      : No

    Text #3
    ID                          : 7
    Format                      : UTF-8
    Codec ID                    : S_TEXT/UTF8
    Codec ID/Info               : UTF-8 Plain Text
    Duration                    : 3 s 505 ms
    Bit rate                    : 61 b/s
    Count of elements           : 1
    Stream size                 : 27.0 Bytes (0%)
    Title                       : Forzados-SRT [CinemaniaHDD]
    Language                    : Spanish
    Default                     : Yes
    Forced                      : Yes

    Text #4
    ID                          : 8
    Format                      : UTF-8
    Codec ID                    : S_TEXT/UTF8
    Codec ID/Info               : UTF-8 Plain Text
    Duration                    : 1 h 55 min
    Bit rate                    : 37 b/s
    Count of elements           : 974
    Stream size                 : 31.8 KiB (0%)
    Title                       : Español-SRT [CinemaniaHDD]
    Language                    : Spanish
    Default                     : No
    Forced                      : No

    Menu
    00:00:00.000                : 00:00:00.000
    00:03:44.474                : 00:03:44.474
    00:13:41.904                : 00:13:41.904
    00:20:50.416                : 00:20:50.416
    00:27:52.838                : 00:27:52.838
    00:36:58.383                : 00:36:58.383
    00:41:52.427                : 00:41:52.427
    00:52:17.051                : 00:52:17.051
    01:04:59.312                : 01:04:59.312
    01:13:08.801                : 01:13:08.801
    01:20:05.801                : 01:20:05.801
    01:27:35.876                : 01:27:35.876
    01:34:35.128                : 01:34:35.128
    01:42:21.010                : 01:42:21.010
    01:47:22.645                : 01:47:22.645
    01:56:32.652                : 01:56:32.652

  • Peso: 8.89 GiB

Sinopsis

Descargar Sin Lugar Para Los Debiles (2007) Full HD 1080p Latino. El veterano de la Guerra de Vietnam ahora cazador Llewellyn Moss descubre por casualidad una sangrienta escena en algún lugar de la frontera entre Texas y México, mientras estaba cazando algunos animales en el árido paisaje. Se trata de un negocio que se cerró mal entre contrabandistas de drogas y algunos hombres locales de la zona, provocando la muerte de varios de ellos. Además de los cuerpos y paquetes de heroína, Llewellyn descubre en una maleta algo más de dos millones de dólares. Cuando Llewellyn toma la maleta con el dinero, provoca una reacción en cadena de catastrófica violencia y una carrera sangrienta de los que quieren darle caza.

Audio Español Latino AC3 5.1 Dub Buenavista/Miramax + AC3 5.1 Dub Paramount – Ingles DTS 5.1 Bluray

Ficha técnica

Video trailer de la película

Enlaces de descarga

Rip de Bluray

Descargar Sin Lugar Para Los Debiles (2007) Full HD 1080p Latino




Aportes de DPeliculasHDmega la pass es:dpeliculashdmega.org Aportes de CinemaniaHD la pass es:cinemaniahdd.com Aportes recientes:cinemaniahdd.net

Películas relacionadas

  • Quantum Leap (2023) Temporada 2 WEB-DL 1080p Latino

    Quantum Leap (2023) Temporada 2 WEB-DL 1080p Latino

    2022
    Quantum Leap (2023) Temporada 2 WEB-DL 1080p Latino

    0h 43m 2022

    Pasaron casi treinta años desde que el Dr. Sam Beckett entró al acelerador del proyecto Quantum Leap...

    Director: Donald P. Bellisario

    Género: Drama

    Actores: Raymond Lee

  • Naturaleza Humana (2022) REMUX 1080p Latino

    Naturaleza Humana (2022) REMUX 1080p Latino

    2022
    Naturaleza Humana (2022) REMUX 1080p Latino

    1h 31m 2022

    Descargar Naturaleza Humana (2022) REMUX 1080p Latino. Una historia sobre la mayoría de edad contada...

    Director: Louie Gibson

    Género: Drama

    Actores: Tim Heidecker

  • Wonka (2023) Full HD 1080p Latino-CMHDD

    Wonka (2023) Full HD 1080p Latino-CMHDD

    2023
    Wonka (2023) Full HD 1080p Latino-CMHDD

    1h 57m 2023

    Descargar Wonka (2023) Full HD 1080p Latino-CMHDD. Basada en el personaje que protagoniza "Charlie y...

    Director: Zoe Morgan

    Género: Comedia

    Actores: Tracy Ifeachor

descargar Sin Lugar Para Los Debiles (2007) Full HD 1080p Latino Full 1080p 1080p gratis, Sin Lugar Para Los Debiles (2007) Full HD 1080p Latino Full 1080p mega 1 link, Sin Lugar Para Los Debiles (2007) Full HD 1080p Latino Full 1080p pelicula completa, descargar Sin Lugar Para Los Debiles (2007) Full HD 1080p Latino Full 1080p gratis en mega.

Sin Lugar Para Los Debiles (2007) Full HD 1080p Latino pelicula full hd, Sin Lugar Para Los Debiles (2007) Full HD 1080p Latino mega latino, Sin Lugar Para Los Debiles (2007) Full HD 1080p Latino 4k latino, Sin Lugar Para Los Debiles (2007) Full HD 1080p Latino pelicula completa, Sin Lugar Para Los Debiles (2007) Full HD 1080p Latino descargar gratis, descargar Sin Lugar Para Los Debiles (2007) Full HD 1080p Latino pelicula latino, Sin Lugar Para Los Debiles (2007) Full HD 1080p Latino 1 link mega, Sin Lugar Para Los Debiles (2007) Full HD 1080p Latino 1 link google drive, Sin Lugar Para Los Debiles (2007) Full HD 1080p Latino hd 1080p latino.
Comentarios 0