Ninja Turtles: Fuera de las sombras (2016) Full 1080p Latino

1.122 vistas
1 estrella2 estrellas3 estrellas4 estrellas5 estrellas (1 votos, promedio: 5,00 de 5)
Cargando…

Información de Ninja Turtles: Fuera de las sombras (2016) Full 1080p Latino

Datos de la película

  • Calidad: Full 1080p
  • Audio: Español Latino AC3 5.1 BLURAY - Ingles DTS 5.1 BLURAY
  • Subtitulos: Español Latino PGS
  • Resolución: 1920X1080p
  • Formato: MKV
  • Codec: H.264
  • Encoder: Dracarys
  • Mediainfo: Clic para Mostrar Datos Ver
  • Format                                   : Matroska
    Format version                           : Version 4 / Version 2
    File size                                : 8.03 GiB
    Duration                                 : 1 h 52 min
    Overall bit rate                         : 10.3 Mb/s
    Movie name                               : CinemaniaHDD.com
    Encoded date                             : UTC 2018-03-17 04:31:45 / UTC 2018-03-15T23:11:20Z
    Writing application                      : mkvmerge v15.0.0 ('Duel with the Devil') 64-bit
    Writing library                          : libebml v1.3.5 + libmatroska v1.4.5 / Lavf57.7.2

    Video
    ID                                       : 1
    Format                                   : AVC
    Format/Info                              : Advanced Video Codec
    Format profile                           : [email protected]
    Format settings                          : CABAC / 4 Ref Frames
    Format settings, CABAC                   : Yes
    Format settings, RefFrames               : 4 frames
    Codec ID                                 : V_MPEG4/ISO/AVC
    Duration                                 : 1 h 52 min
    Bit rate                                 : 7 899 kb/s
    Width                                    : 1 920 pixels
    Height                                   : 1 080 pixels
    Display aspect ratio                     : 16:9
    Frame rate mode                          : Constant
    Frame rate                               : 23.976 (24000/1001) FPS
    Color space                              : YUV
    Chroma subsampling                       : 4:2:0
    Bit depth                                : 8 bits
    Scan type                                : Progressive
    Bits/(Pixel*Frame)                       : 0.159
    Stream size                              : 6.19 GiB (77%)
    Title                                    : Ninja Turtles: Fuera de las sombras (2016) Full 1080p Latino
    Writing library                          : x264 core 148 r2708 86b7198
    Encoding settings                        : cabac=1 / ref=4 / deblock=1:0:0 / analyse=0x3:0x133 / me=esa / subme=9 / psy=1 / psy_rd=1.00:0.00 / mixed_ref=1 / me_range=16 / chroma_me=1 / trellis=2 / 8x8dct=1 / cqm=0 / deadzone=21,11 / fast_pskip=1 / chroma_qp_offset=-2 / threads=34 / lookahead_threads=2 / sliced_threads=0 / nr=0 / decimate=1 / interlaced=0 / bluray_compat=0 / constrained_intra=0 / bframes=3 / b_pyramid=2 / b_adapt=2 / b_bias=0 / direct=3 / weightb=1 / open_gop=0 / weightp=2 / keyint=240 / keyint_min=24 / scenecut=40 / intra_refresh=0 / rc_lookahead=60 / rc=crf / mbtree=1 / crf=20.0 / qcomp=0.60 / qpmin=0 / qpmax=69 / qpstep=4 / vbv_maxrate=62500 / vbv_bufsize=78125 / crf_max=0.0 / nal_hrd=none / filler=0 / ip_ratio=1.40 / aq=1:1.00
    Language                                 : English
    Default                                  : Yes
    Forced                                   : No
    Color range                              : Limited
    Color primaries                          : BT.709
    Transfer characteristics                 : BT.709
    Matrix coefficients                      : BT.709
    Statistics Tags Issue                    : mkvmerge v15.0.0 ('Duel with the Devil') 64-bit 2018-03-17 04:31:45 / mkvmerge v15.0.0 ('Duel with the Devil') 64-bit 2018-03-17 04:31:45 / UTC 2018-03-15T23:11:20Z
    FromStats_BitRate                        : 8074106
    FromStats_Duration                       : 01:52:07.596000000
    FromStats_FrameCount                     : 161301
    FromStats_StreamSize                     : 6789916039

    Audio #1
    ID                                       : 2
    Format                                   : AC-3
    Format/Info                              : Audio Coding 3
    Format settings, Endianness              : Big
    Codec ID                                 : A_AC3
    Duration                                 : 1 h 52 min
    Bit rate mode                            : Constant
    Bit rate                                 : 640 kb/s
    Channel(s)                               : 6 channels
    Channel positions                        : Front: L C R, Side: L R, LFE
    Sampling rate                            : 48.0 kHz
    Frame rate                               : 31.250 FPS (1536 SPF)
    Bit depth                                : 16 bits
    Compression mode                         : Lossy
    Stream size                              : 513 MiB (6%)
    Language                                 : Spanish
    Service kind                             : Complete Main
    Default                                  : Yes
    Forced                                   : No
    Statistics Tags Issue                    : mkvmerge v15.0.0 ('Duel with the Devil') 64-bit 2018-03-17 04:31:45 / mkvmerge v15.0.0 ('Duel with the Devil') 64-bit 2018-03-17 04:31:45 / UTC 2018-03-15T23:11:20Z
    FromStats_BitRate                        : 640000
    FromStats_Duration                       : 01:52:07.616000000
    FromStats_FrameCount                     : 210238
    FromStats_StreamSize                     : 538209280

    Audio #2
    ID                                       : 3
    Format                                   : DTS
    Format/Info                              : Digital Theater Systems
    Mode                                     : 16
    Format settings, Endianness              : Big
    Codec ID                                 : A_DTS
    Duration                                 : 1 h 52 min
    Bit rate mode                            : Constant
    Bit rate                                 : 1 509 kb/s
    Channel(s)                               : 6 channels
    Channel positions                        : Front: L C R, Side: L R, LFE
    Sampling rate                            : 48.0 kHz
    Frame rate                               : 93.750 FPS (512 SPF)
    Bit depth                                : 24 bits
    Compression mode                         : Lossy
    Stream size                              : 1.18 GiB (15%)
    Language                                 : English
    Default                                  : No
    Forced                                   : No
    Statistics Tags Issue                    : mkvmerge v15.0.0 ('Duel with the Devil') 64-bit 2018-03-17 04:31:45 / mkvmerge v15.0.0 ('Duel with the Devil') 64-bit 2018-03-17 04:31:45 / UTC 2018-03-15T23:11:20Z
    FromStats_BitRate                        : 1508999
    FromStats_Duration                       : 01:52:07.627000000
    FromStats_FrameCount                     : 630715
    FromStats_StreamSize                     : 1268998580

    Text #1
    ID                                       : 4
    Format                                   : UTF-8
    Codec ID                                 : S_TEXT/UTF8
    Codec ID/Info                            : UTF-8 Plain Text
    Language                                 : Spanish
    Default                                  : No
    Forced                                   : No
    Statistics Tags Issue                    : mkvmerge v15.0.0 ('Duel with the Devil') 64-bit 2018-03-17 04:31:45 / mkvmerge v15.0.0 ('Duel with the Devil') 64-bit 2018-03-17 04:31:45 / UTC 2018-03-15T23:11:20Z
    FromStats_BitRate                        : 66
    FromStats_Duration                       : 01:43:13.945000000
    FromStats_FrameCount                     : 1527
    FromStats_StreamSize                     : 51485

    Text #2
    ID                                       : 5
    Format                                   : PGS
    Muxing mode                              : zlib
    Codec ID                                 : S_HDMV/PGS
    Codec ID/Info                            : Picture based subtitle format used on BDs/HD-DVDs
    Language                                 : Spanish
    Default                                  : No
    Forced                                   : No
    Statistics Tags Issue                    : mkvmerge v15.0.0 ('Duel with the Devil') 64-bit 2018-03-17 04:31:45 / mkvmerge v15.0.0 ('Duel with the Devil') 64-bit 2018-03-17 04:31:45 / UTC 2018-03-15T23:11:20Z
    FromStats_BitRate                        : 61749
    FromStats_Duration                       : 01:43:13.944000000
    FromStats_FrameCount                     : 3054
    FromStats_StreamSize                     : 47809179

    Text #3
    ID                                       : 6
    Format                                   : ASS
    Codec ID                                 : S_TEXT/ASS
    Codec ID/Info                            : Advanced Sub Station Alpha
    Compression mode                         : Lossless
    Language                                 : English
    Default                                  : No
    Forced                                   : No
    Statistics Tags Issue                    : mkvmerge v15.0.0 ('Duel with the Devil') 64-bit 2018-03-17 04:31:45 / mkvmerge v15.0.0 ('Duel with the Devil') 64-bit 2018-03-17 04:31:45 / UTC 2018-03-15T23:11:20Z
    FromStats_BitRate                        : 132
    FromStats_Duration                       : 01:43:13.519000000
    FromStats_FrameCount                     : 1879
    FromStats_StreamSize                     : 102451

    Menu
    00:00:00.000                             : :00:00:00.000
    00:05:55.564                             : :00:05:55.564
    00:12:18.571                             : :00:12:18.571
    00:18:53.507                             : :00:18:53.507
    00:26:38.097                             : :00:26:38.096
    00:33:14.493                             : :00:33:14.492
    00:38:56.459                             : :00:38:56.459
    00:44:11.190                             : :00:44:11.190
    00:49:40.311                             : :00:49:40.311
    00:55:40.629                             : :00:55:40.629
    01:02:01.259                             : :01:02:01.259
    01:04:51.971                             : :01:04:51.971
    01:14:32.760                             : :01:14:32.760
    01:21:18.415                             : :01:21:18.415
    01:28:10.160                             : :01:28:10.160
    01:36:58.229                             : :01:36:58.229
    01:41:52.023                             : :01:41:52.023
    01:46:20.875                             : :01:46:20.874

  • Peso: 8.03 GiB

Sinopsis

Michelangelo, Donatello, Leonardo y Raphael regresan junto con April O’Neil (Megan Fox), Vern Fenwick (Will Arnett) y un nuevo vigilante enmascarado, Casey Jones (Stephen Amell), para combatir a unos villanos aún más malignos y poderosos. El súper villano Shredder escapa de prisión y une sus fuerzas con el científico loco Baxter Stockman (Tyler Perry) y sus dos secuaces, Bebob (Gary Anthony Williams) y Rocksteady (la súper estrella de la WWE Stephen Sheamus Farrelly), para llevar a cabo un diabólico plan para conquistar el mundo. Mientras las Tortugas se preparan para enfrentarse a Shredder y su banda, tendrán que luchar también con un nuevo enemigo, incluso más poderoso, y también con intenciones malignas: El General Krang.

Ficha técnica

Video trailer de la película

Enlaces de descarga

Rip de Bluray

Descargar Ninja Turtles: Fuera de las sombras (2016) Full 1080p Latino




Aportes de DPeliculasHDmega la pass es:dpeliculashdmega.org Aportes de CinemaniaHD la pass es:cinemaniahdd.com

Películas relacionadas

Comentarios 6
  • JUAN0000 - 09 mayo, 2018

    POR FAVOR ARREGLEN ESTA GRAN PELICULA

    • dpelis - 09 mayo, 2018

      cual es el problema?

  • Andrz - 18 marzo, 2018

    Hola cinemania, soy un fiel seguidor de la pagina, aunque no soy VIP , pero les podria sugerir algo, si ustedes quieren, ya saben que ningun gestor de descarga funciona bn excepto mipony que funciona con archivos menores a 2 GB , si podrian subir las partes de 1,8 GB por favor, para poder descargar facilmente gracias

    • dpelis - 18 marzo, 2018

      que servidor no funciona?

      • Andrz - 18 marzo, 2018

        todos sirven, el problema es cuando voy a descargar, el gestor de descarga mipony solo descarga archivos menores de 2 gb,

        • dpelis - 19 marzo, 2018

          pero es en mega? oh google drive?