×

¿Problemas para descargar con Mozilla, EDGE? Deshabilita la opción "Abrir vinculos en una pestaña nueva" tal como lo muestra ésta imagen.

Ninja Scroll (1993) REMUX Latino – CMHDD

348 vistas

Información de Ninja Scroll (1993) REMUX Latino – CMHDD

Datos de la película

  • Calidad: Full 1080p
  • Audio: Se especifica abajo de la Sinopsis
  • Subtitulos: Español Latino SRT- FORZADOS SRT
  • Resolución: 1920x1080p
  • Formato: MKV
  • Codec: H.264
  • Encoder: Dracarys
  • Mediainfo: Clic para Mostrar Datos Ver
  • Format                      : Matroska
    Format version              : Version 4
    File size                   : 26.1 GiB
    Duration                    : 1 h 31 min
    Overall bit rate mode       : Variable
    Overall bit rate            : 40.8 Mb/s
    Movie name                  : Ninja Scroll (1993) REMUX Latino - CMHDD
    Encoded date                : UTC 2020-05-16 23:27:17
    Writing application         : mkvmerge v46.0.0 ('No Deeper Escape') 64-bit
    Writing library             : libebml v1.3.10 + libmatroska v1.5.2

    Video
    ID                          : 1
    Format                      : AVC
    Format/Info                 : Advanced Video Codec
    Format profile              : High@L4.1
    Format settings             : CABAC / 4 Ref Frames
    Format settings, CABAC      : Yes
    Format settings, Reference  : 4 frames
    Codec ID                    : V_MPEG4/ISO/AVC
    Duration                    : 1 h 31 min
    Bit rate mode               : Variable
    Bit rate                    : 37.6 Mb/s
    Maximum bit rate            : 39.0 Mb/s
    Width                       : 1 920 pixels
    Height                      : 1 080 pixels
    Display aspect ratio        : 16:9
    Frame rate mode             : Constant
    Frame rate                  : 23.976 (24000/1001) FPS
    Color space                 : YUV
    Chroma subsampling          : 4:2:0
    Bit depth                   : 8 bits
    Scan type                   : Progressive
    Bits/(Pixel*Frame)          : 0.756
    Stream size                 : 24.0 GiB (92%)
    Default                     : Yes
    Forced                      : No

    Audio #1
    ID                          : 2
    Format                      : AC-3
    Format/Info                 : Audio Coding 3
    Commercial name             : Dolby Digital
    Codec ID                    : A_AC3
    Duration                    : 1 h 31 min
    Bit rate mode               : Constant
    Bit rate                    : 192 kb/s
    Channel(s)                  : 2 channels
    Channel layout              : L R
    Sampling rate               : 48.0 kHz
    Frame rate                  : 31.250 FPS (1536 SPF)
    Compression mode            : Lossy
    Stream size                 : 125 MiB (0%)
    Language                    : Spanish
    Service kind                : Complete Main
    Default                     : Yes
    Forced                      : No

    Audio #2
    ID                          : 3
    Format                      : PCM
    Format settings             : Little / Signed
    Codec ID                    : A_PCM/INT/LIT
    Duration                    : 1 h 31 min
    Bit rate mode               : Constant
    Bit rate                    : 1 536 kb/s
    Channel(s)                  : 2 channels
    Sampling rate               : 48.0 kHz
    Frame rate                  : 200.000 FPS (240 SPF)
    Bit depth                   : 16 bits
    Stream size                 : 1 007 MiB (4%)
    Language                    : Japanese
    Default                     : No
    Forced                      : No

    Audio #3
    ID                          : 4
    Format                      : DTS
    Format/Info                 : Digital Theater Systems
    Codec ID                    : A_DTS
    Duration                    : 1 h 31 min
    Bit rate mode               : Constant
    Bit rate                    : 1 509 kb/s
    Channel(s)                  : 2 channels
    Channel layout              : L R
    Sampling rate               : 48.0 kHz
    Frame rate                  : 93.750 FPS (512 SPF)
    Bit depth                   : 24 bits
    Compression mode            : Lossy
    Stream size                 : 989 MiB (4%)
    Language                    : Japanese
    Default                     : No
    Forced                      : No

    Text #1
    ID                          : 5
    Format                      : UTF-8
    Codec ID                    : S_TEXT/UTF8
    Codec ID/Info               : UTF-8 Plain Text
    Duration                    : 1 h 29 min
    Bit rate                    : 35 b/s
    Count of elements           : 624
    Stream size                 : 23.1 KiB (0%)
    Title                       : Completos
    Language                    : Spanish
    Default                     : No
    Forced                      : No

    Text #2
    ID                          : 6
    Format                      : UTF-8
    Codec ID                    : S_TEXT/UTF8
    Codec ID/Info               : UTF-8 Plain Text
    Duration                    : 2 min 33 s
    Bit rate                    : 36 b/s
    Count of elements           : 20
    Stream size                 : 691 Bytes (0%)
    Title                       : Forzados
    Language                    : Spanish
    Default                     : Yes
    Forced                      : No

  • Peso: 26.1 GiB

Sinopsis

Tras interminables años de guerra civil, el Japón feudal tiembla ante una terrible amenaza: la aparición del Shogun de las Tinieblas, que con su ejército de criaturas demoníacas y sanguinarios guerreros, pretende convertir a todo Japón en sangre y fuego. Un poderoso guerrero errante llamado Jubei estará dispuesto a enfrentarse al Shogun de las Tinieblas y acabar con él cueste lo que cueste. Jubei es un legendario samurai cuyas técnicas de combate le permiten derrotar a cualquier enemigo. Durante una pelea, salvará la vida de la joven ninja Kagero y ésta será decisiva en la batalla final: el enfrentamiento contra los ocho demonios de Kimon.

 

Latino: AC3 2.0 Japones DTS + PCM 2.0

Ficha técnica

Video trailer de la película

Enlaces de descarga

Rip de Bluray

Descargar Ninja Scroll (1993) REMUX Latino – CMHDD




Aportes de DPeliculasHDmega la pass es:dpeliculashdmega.org Aportes de CinemaniaHD la pass es:cinemaniahdd.com
Guardado en : Animación , Aventura , Fantasía , Remux

Películas relacionadas

descargar Ninja Scroll (1993) REMUX Latino – CMHDD Full 1080p 1080p gratis, Ninja Scroll (1993) REMUX Latino – CMHDD Full 1080p mega 1 link, Ninja Scroll (1993) REMUX Latino – CMHDD Full 1080p pelicula completa, descargar Ninja Scroll (1993) REMUX Latino – CMHDD Full 1080p gratis en mega.

Ninja Scroll (1993) REMUX Latino – CMHDD pelicula full hd, Ninja Scroll (1993) REMUX Latino – CMHDD mega latino, Ninja Scroll (1993) REMUX Latino – CMHDD 4k latino, Ninja Scroll (1993) REMUX Latino – CMHDD pelicula completa, Ninja Scroll (1993) REMUX Latino – CMHDD descargar gratis, descargar Ninja Scroll (1993) REMUX Latino – CMHDD pelicula latino, Ninja Scroll (1993) REMUX Latino – CMHDD 1 link mega, Ninja Scroll (1993) REMUX Latino – CMHDD 1 link google drive, Ninja Scroll (1993) REMUX Latino – CMHDD hd 1080p latino.
Comentarios 0