×

¿Problemas para descargar con Mozilla, EDGE? Deshabilita la opción "Abrir vinculos en una pestaña nueva" tal como lo muestra ésta imagen.

Ninja Scroll (1993) HD Latino – CMHDD

335 vistas

Información de Ninja Scroll (1993) HD Latino – CMHDD

Datos de la película

  • Calidad: 1080p
  • Audio: Se especifica abajo de la Sinopsis
  • Subtitulos: Español Latino SRT- FORZADOS SRT
  • Resolución: 1460x1080p
  • Formato: MKV
  • Codec: H.264
  • Encoder: Dracarys
  • Mediainfo: Clic para Mostrar Datos Ver
  • Format                      : Matroska
    Format version              : Version 4
    File size                   : 2.50 GiB
    Duration                    : 1 h 31 min
    Overall bit rate            : 3 911 kb/s
    Movie name                  : Ninja Scroll (1993) HD Latino - CMHDD
    Encoded date                : UTC 2020-05-16 23:24:16
    Writing application         : mkvmerge v46.0.0 ('No Deeper Escape') 64-bit
    Writing library             : libebml v1.3.10 + libmatroska v1.5.2

    Video
    ID                          : 1
    Format                      : AVC
    Format/Info                 : Advanced Video Codec
    Format profile              : High@L4.1
    Format settings             : CABAC / 5 Ref Frames
    Format settings, CABAC      : Yes
    Format settings, Reference  : 5 frames
    Codec ID                    : V_MPEG4/ISO/AVC
    Duration                    : 1 h 31 min
    Bit rate                    : 3 500 kb/s
    Width                       : 1 460 pixels
    Height                      : 1 080 pixels
    Display aspect ratio        : 4:3
    Frame rate mode             : Constant
    Frame rate                  : 23.976 (24000/1001) FPS
    Color space                 : YUV
    Chroma subsampling          : 4:2:0
    Bit depth                   : 8 bits
    Scan type                   : Progressive
    Bits/(Pixel*Frame)          : 0.093
    Stream size                 : 2.22 GiB (89%)
    Writing library             : x264 core 157 r2935 545de2f
    Encoding settings           : cabac=1 / ref=5 / deblock=1:0:0 / analyse=0x3:0x113 / me=hex / subme=8 / psy=1 / psy_rd=1.00:0.00 / mixed_ref=1 / me_range=16 / chroma_me=1 / trellis=2 / 8x8dct=1 / cqm=0 / deadzone=21,11 / fast_pskip=1 / chroma_qp_offset=-2 / threads=24 / lookahead_threads=4 / sliced_threads=0 / nr=0 / decimate=1 / interlaced=0 / bluray_compat=0 / constrained_intra=0 / bframes=3 / b_pyramid=2 / b_adapt=1 / b_bias=0 / direct=3 / weightb=1 / open_gop=0 / weightp=2 / keyint=240 / keyint_min=24 / scenecut=40 / intra_refresh=0 / rc_lookahead=50 / rc=abr / mbtree=1 / bitrate=3500 / ratetol=1.0 / qcomp=0.60 / qpmin=0 / qpmax=69 / qpstep=4 / vbv_maxrate=62500 / vbv_bufsize=78125 / nal_hrd=none / filler=0 / ip_ratio=1.40 / aq=1:1.00
    Language                    : Japanese
    Default                     : Yes
    Forced                      : No
    Color range                 : Limited
    Color primaries             : BT.709
    Transfer characteristics    : BT.709
    Matrix coefficients         : BT.709

    Audio #1
    ID                          : 2
    Format                      : AC-3
    Format/Info                 : Audio Coding 3
    Commercial name             : Dolby Digital
    Codec ID                    : A_AC3
    Duration                    : 1 h 31 min
    Bit rate mode               : Constant
    Bit rate                    : 192 kb/s
    Channel(s)                  : 2 channels
    Channel layout              : L R
    Sampling rate               : 48.0 kHz
    Frame rate                  : 31.250 FPS (1536 SPF)
    Compression mode            : Lossy
    Delay relative to video     : -5 ms
    Stream size                 : 125 MiB (5%)
    Language                    : Spanish
    Service kind                : Complete Main
    Default                     : Yes
    Forced                      : No

    Audio #2
    ID                          : 3
    Format                      : AC-3
    Format/Info                 : Audio Coding 3
    Commercial name             : Dolby Digital
    Codec ID                    : A_AC3
    Duration                    : 1 h 31 min
    Bit rate mode               : Constant
    Bit rate                    : 256 kb/s
    Channel(s)                  : 2 channels
    Channel layout              : L R
    Sampling rate               : 48.0 kHz
    Frame rate                  : 31.250 FPS (1536 SPF)
    Compression mode            : Lossy
    Delay relative to video     : -5 ms
    Stream size                 : 168 MiB (7%)
    Language                    : Japanese
    Service kind                : Complete Main
    Default                     : No
    Forced                      : No

    Text #1
    ID                          : 4
    Format                      : UTF-8
    Codec ID                    : S_TEXT/UTF8
    Codec ID/Info               : UTF-8 Plain Text
    Duration                    : 1 h 29 min
    Bit rate                    : 35 b/s
    Count of elements           : 624
    Stream size                 : 23.1 KiB (0%)
    Title                       : Completos
    Language                    : Spanish
    Default                     : No
    Forced                      : No

    Text #2
    ID                          : 5
    Format                      : UTF-8
    Codec ID                    : S_TEXT/UTF8
    Codec ID/Info               : UTF-8 Plain Text
    Duration                    : 2 min 33 s
    Bit rate                    : 36 b/s
    Count of elements           : 20
    Stream size                 : 691 Bytes (0%)
    Title                       : Forzados
    Language                    : Spanish
    Default                     : Yes
    Forced                      : No

    Menu
    00:00:00.000                : :Chapter 1
    00:02:54.174                : :Chapter 2
    00:06:31.099                : :Chapter 3
    00:09:19.934                : :Chapter 4
    00:14:33.706                : :Chapter 5
    00:19:56.487                : :Chapter 6
    00:22:02.029                : :Chapter 7
    00:25:19.268                : :Chapter 8
    00:28:54.524                : :Chapter 9
    00:33:35.096                : :Chapter 10
    00:37:32.917                : :Chapter 11
    00:43:11.589                : :Chapter 12
    00:45:19.175                : :Chapter 13
    00:47:39.899                : :Chapter 14
    00:52:16.842                : :Chapter 15
    00:55:16.730                : :Chapter 16
    00:59:36.948                : :Chapter 17
    01:03:16.126                : :Chapter 18
    01:06:18.183                : :Chapter 19
    01:11:28.326                : :Chapter 20
    01:13:00.543                : :Chapter 21
    01:16:47.686                : :Chapter 22
    01:19:41.694                : :Chapter 23
    01:27:52.684                : :Chapter 24

  • Peso: 2.50 GiB

Sinopsis

Tras interminables años de guerra civil, el Japón feudal tiembla ante una terrible amenaza: la aparición del Shogun de las Tinieblas, que con su ejército de criaturas demoníacas y sanguinarios guerreros, pretende convertir a todo Japón en sangre y fuego. Un poderoso guerrero errante llamado Jubei estará dispuesto a enfrentarse al Shogun de las Tinieblas y acabar con él cueste lo que cueste. Jubei es un legendario samurai cuyas técnicas de combate le permiten derrotar a cualquier enemigo. Durante una pelea, salvará la vida de la joven ninja Kagero y ésta será decisiva en la batalla final: el enfrentamiento contra los ocho demonios de Kimon.

 

Latino: AC3 2.0  –  Japones AC3 2.0

Ficha técnica

Video trailer de la película

Enlaces de descarga

Rip de Bluray

Descargar Ninja Scroll (1993) HD Latino – CMHDD




Aportes de DPeliculasHDmega la pass es:dpeliculashdmega.org Aportes de CinemaniaHD la pass es:cinemaniahdd.com
Guardado en : Animación , Aventura , Fantasía , HD 1080p

Películas relacionadas

descargar Ninja Scroll (1993) HD Latino – CMHDD 1080p 1080p gratis, Ninja Scroll (1993) HD Latino – CMHDD 1080p mega 1 link, Ninja Scroll (1993) HD Latino – CMHDD 1080p pelicula completa, descargar Ninja Scroll (1993) HD Latino – CMHDD 1080p gratis en mega.

Ninja Scroll (1993) HD Latino – CMHDD pelicula full hd, Ninja Scroll (1993) HD Latino – CMHDD mega latino, Ninja Scroll (1993) HD Latino – CMHDD 4k latino, Ninja Scroll (1993) HD Latino – CMHDD pelicula completa, Ninja Scroll (1993) HD Latino – CMHDD descargar gratis, descargar Ninja Scroll (1993) HD Latino – CMHDD pelicula latino, Ninja Scroll (1993) HD Latino – CMHDD 1 link mega, Ninja Scroll (1993) HD Latino – CMHDD 1 link google drive, Ninja Scroll (1993) HD Latino – CMHDD hd 1080p latino.
Comentarios 0