×

¿Problemas para descargar con Mozilla, EDGE? Deshabilita la opción "Abrir vinculos en una pestaña nueva" tal como lo muestra ésta imagen.

Ninja Assassin (2009) REMUX 1080p Latino

867 vistas

Información de Ninja Assassin (2009) REMUX 1080p Latino

Datos de la película

  • Calidad: Full 1080p
  • Audio: Español Latino AC3 5.1 DVD - Ingles DTS 5.1 BLURAY
  • Subtitulos: Español Latino SRT- FORZADOS SRT
  • Resolución: 1920x1080p
  • Formato: MKV
  • Codec: H.264
  • Encoder: Dracarys
  • Mediainfo: Clic para Mostrar Datos Ver
  • Format                      : Matroska
    Format version              : Version 4
    File size                   : 16.7 GiB
    Duration                    : 1 h 38 min
    Overall bit rate mode       : Variable
    Overall bit rate            : 24.3 Mb/s
    Movie name                  : CinemaniaHDD.net
    Encoded date                : UTC 2020-01-17 02:10:42
    Writing application         : mkvmerge v38.0.0 ('The Silent Type') 64-bit
    Writing library             : libebml v1.3.9 + libmatroska v1.5.2

    Video
    ID                          : 1
    Format                      : AVC
    Format/Info                 : Advanced Video Codec
    Format profile              : High@L4.1
    Format settings             : CABAC / 4 Ref Frames
    Format settings, CABAC      : Yes
    Format settings, ReFrames   : 4 frames
    Format settings, GOP        : M=3, N=18
    Codec ID                    : V_MPEG4/ISO/AVC
    Duration                    : 1 h 38 min
    Bit rate mode               : Variable
    Bit rate                    : 20.0 Mb/s
    Maximum bit rate            : 30.0 Mb/s
    Width                       : 1 920 pixels
    Height                      : 1 080 pixels
    Display aspect ratio        : 16:9
    Frame rate mode             : Constant
    Frame rate                  : 24.000 FPS
    Color space                 : YUV
    Chroma subsampling          : 4:2:0
    Bit depth                   : 8 bits
    Scan type                   : Progressive
    Bits/(Pixel*Frame)          : 0.402
    Stream size                 : 13.8 GiB (82%)
    Default                     : Yes
    Forced                      : No
    Color range                 : Limited
    Color primaries             : BT.709
    Transfer characteristics    : BT.709
    Matrix coefficients         : BT.709

    Audio #1
    ID                          : 2
    Format                      : AC-3
    Format/Info                 : Audio Coding 3
    Commercial name             : Dolby Digital
    Codec ID                    : A_AC3
    Duration                    : 1 h 38 min
    Bit rate mode               : Constant
    Bit rate                    : 384 kb/s
    Channel(s)                  : 6 channels
    Channel layout              : L R C LFE Ls Rs
    Sampling rate               : 48.0 kHz
    Frame rate                  : 31.250 FPS (1536 SPF)
    Bit depth                   : 16 bits
    Compression mode            : Lossy
    Stream size                 : 271 MiB (2%)
    Language                    : Spanish
    Service kind                : Complete Main
    Default                     : Yes
    Forced                      : No

    Audio #2
    ID                          : 3
    Format                      : DTS XLL
    Format/Info                 : Digital Theater Systems
    Commercial name             : DTS-HD Master Audio
    Codec ID                    : A_DTS
    Duration                    : 1 h 38 min
    Bit rate mode               : Variable
    Bit rate                    : 3 909 kb/s
    Channel(s)                  : 6 channels
    Channel layout              : C L R Ls Rs LFE
    Sampling rate               : 48.0 kHz
    Frame rate                  : 93.750 FPS (512 SPF)
    Bit depth                   : 24 bits
    Compression mode            : Lossless
    Stream size                 : 2.69 GiB (16%)
    Language                    : English
    Default                     : No
    Forced                      : No

    Text #1
    ID                          : 4
    Format                      : UTF-8
    Codec ID                    : S_TEXT/UTF8
    Codec ID/Info               : UTF-8 Plain Text
    Duration                    : 1 h 30 min
    Bit rate                    : 0 b/s
    Count of elements           : 3
    Stream size                 : 54.0 Bytes (0%)
    Language                    : Spanish
    Default                     : Yes
    Forced                      : Yes

    Text #2
    ID                          : 5
    Format                      : UTF-8
    Codec ID                    : S_TEXT/UTF8
    Codec ID/Info               : UTF-8 Plain Text
    Duration                    : 1 h 30 min
    Bit rate                    : 31 b/s
    Count of elements           : 688
    Stream size                 : 20.8 KiB (0%)
    Language                    : Spanish
    Default                     : No
    Forced                      : No

  • Peso: 16.7 GiB

Sinopsis

Ninja Assassin narra la historia de Raizo (Rain), uno de los mejores asesinos del mundo. Raizo es un niño de la calle transformado en una máquina entrenada por el Clan Ozunu, una sociedad secreta la cual se cree que es un mito. El asesinato de uno de los amigos de Raizo por el mismo Clan hace que él huya y desaparezca. Ahora el espera el momento indicado para la venganza. En Berlin, la agente de Europol Mika Coretti (Naomie Harris) ha chocado con una pista que demuestra que asesinatos políticos tienen vinculación con asesinos del Lejano Oriente. Desafiando las ordenes de su superior, Ryan Maslow (Ben Miles), Mika investiga mas a fondo para saber la verdad detrás de los asesinatos. Este descubrimiento la convierte en un blanco del Clan Ozunu y asesinos son enviados tras ella liderados por el letal Takeshi (Rick Yune), para silenciarla para siempreto. Raizo salva a Mika de sus atacantes, pero ahora el sabe que el Clan no descansará hasta que ambos sean eliminados.

Ficha técnica

Video trailer de la película

Enlaces de descarga

Rip de Bluray

Descargar Ninja Assassin (2009) REMUX 1080p Latino




Aportes de DPeliculasHDmega la pass es:dpeliculashdmega.org Aportes de CinemaniaHD la pass es:cinemaniahdd.com
Guardado en : Acción , Remux , Suspenso

Películas relacionadas

descargar Ninja Assassin (2009) REMUX 1080p Latino Full 1080p 1080p gratis, Ninja Assassin (2009) REMUX 1080p Latino Full 1080p mega 1 link, Ninja Assassin (2009) REMUX 1080p Latino Full 1080p pelicula completa, descargar Ninja Assassin (2009) REMUX 1080p Latino Full 1080p gratis en mega.

Ninja Assassin (2009) REMUX 1080p Latino pelicula full hd, Ninja Assassin (2009) REMUX 1080p Latino mega latino, Ninja Assassin (2009) REMUX 1080p Latino 4k latino, Ninja Assassin (2009) REMUX 1080p Latino pelicula completa, Ninja Assassin (2009) REMUX 1080p Latino descargar gratis, descargar Ninja Assassin (2009) REMUX 1080p Latino pelicula latino, Ninja Assassin (2009) REMUX 1080p Latino 1 link mega, Ninja Assassin (2009) REMUX 1080p Latino 1 link google drive, Ninja Assassin (2009) REMUX 1080p Latino hd 1080p latino.
Comentarios 0