×

¿Problemas para descargar con Mozilla, EDGE? Deshabilita la opción "Abrir vinculos en una pestaña nueva" tal como lo muestra ésta imagen.

La isla de Nim (2008) REMUX 1080p Latino

334 vistas

Información de La isla de Nim (2008) REMUX 1080p Latino

Datos de la película

  • Calidad: Full 1080p
  • Audio: Español Latino DTS 5.1 BLURAY - Ingles DTS-HD 5.1 BLURAY
  • Subtitulos: Español Latino PGS - Ingles PGS
  • Resolución: 1920x1080p
  • Formato: MKV
  • Codec: H.264
  • Encoder: CinefiloCool
  • Mediainfo: Clic para Mostrar Datos Ver
  • La Isla De Nim (2008) REMUX 1080p Latino-CMHDD.mkv
    Format                      : Matroska
    Format version              : Version 4
    File size                   : 19.5 GiB
    Duration                    : 1 h 36 min
    Overall bit rate mode       : Variable
    Overall bit rate            : 29.1 Mb/s
    Movie name                  : Nim's Island (2008) CinemaniaHDD.Net
    Encoded date                : UTC 2022-01-17 22:45:50
    Writing application         : mkvmerge v56.1.0 ('My Friend') 64-bit
    Writing library             : libebml v1.4.2 + libmatroska v1.6.4
    Attachments                 : CINEMANIAHD.png

    Video
    ID                          : 1
    ID in the original source m : 4113 (0x1011)
    Format                      : VC-1
    Format profile              : Advanced@L3
    Codec ID                    : V_MS/VFW/FOURCC / WVC1
    Codec ID/Hint               : Microsoft
    Duration                    : 1 h 36 min
    Bit rate                    : 24.0 Mb/s
    Width                       : 1 920 pixels
    Height                      : 1 080 pixels
    Display aspect ratio        : 16:9
    Frame rate mode             : Constant
    Frame rate                  : 23.976 (24000/1001) FPS
    Color space                 : YUV
    Chroma subsampling          : 4:2:0
    Bit depth                   : 8 bits
    Scan type                   : Progressive
    Compression mode            : Lossy
    Bits/(Pixel*Frame)          : 0.482
    Stream size                 : 16.1 GiB (82%)
    Title                       : REMUX HD1080p [CinemaniaHDD]
    Default                     : Yes
    Forced                      : Yes
    Original source medium      : Blu-ray

    Audio #1
    ID                          : 2
    ID in the original source m : 4356 (0x1104)
    Format                      : DTS
    Format/Info                 : Digital Theater Systems
    Codec ID                    : A_DTS
    Duration                    : 1 h 36 min
    Bit rate mode               : Constant
    Bit rate                    : 768 kb/s
    Channel(s)                  : 6 channels
    Channel layout              : C L R Ls Rs LFE
    Sampling rate               : 48.0 kHz
    Frame rate                  : 93.750 FPS (512 SPF)
    Bit depth                   : 24 bits
    Compression mode            : Lossy
    Stream size                 : 528 MiB (3%)
    Title                       : Español Latino [CinemaniaHDD]
    Language                    : Spanish
    Default                     : Yes
    Forced                      : Yes
    Original source medium      : Blu-ray

    Audio #2
    ID                          : 3
    ID in the original source m : 4352 (0x1100)
    Format                      : DTS XLL
    Format/Info                 : Digital Theater Systems
    Commercial name             : DTS-HD Master Audio
    Codec ID                    : A_DTS
    Duration                    : 1 h 36 min
    Bit rate mode               : Variable
    Bit rate                    : 4 301 kb/s
    Channel(s)                  : 6 channels
    Channel layout              : C L R Ls Rs LFE
    Sampling rate               : 48.0 kHz
    Frame rate                  : 93.750 FPS (512 SPF)
    Bit depth                   : 24 bits
    Compression mode            : Lossless
    Stream size                 : 2.89 GiB (15%)
    Title                       : Ingles [CinemaniaHDD]
    Language                    : English
    Default                     : No
    Forced                      : No
    Original source medium      : Blu-ray

    Text #1
    ID                          : 4
    ID in the original source m : 4616 (0x1208)
    Format                      : PGS
    Muxing mode                 : zlib
    Codec ID                    : S_HDMV/PGS
    Codec ID/Info               : Picture based subtitle format used on BDs/HD-DVDs
    Duration                    : 12 min 46 s
    Bit rate                    : 1 098 b/s
    Count of elements           : 8
    Stream size                 : 103 KiB (0%)
    Title                       : Forzados-PGS [CinemaniaHDD]
    Language                    : Spanish
    Default                     : No
    Forced                      : No
    Original source medium      : Blu-ray

    Text #2
    ID                          : 5
    ID in the original source m : 4612 (0x1204)
    Format                      : PGS
    Muxing mode                 : zlib
    Codec ID                    : S_HDMV/PGS
    Codec ID/Info               : Picture based subtitle format used on BDs/HD-DVDs
    Duration                    : 1 h 28 min
    Bit rate                    : 31.3 kb/s
    Count of elements           : 2094
    Stream size                 : 19.8 MiB (0%)
    Title                       : Español-PGS [CinemaniaHDD]
    Language                    : Spanish
    Default                     : No
    Forced                      : No
    Original source medium      : Blu-ray

    Text #3
    ID                          : 6
    ID in the original source m : 4608 (0x1200)
    Format                      : PGS
    Muxing mode                 : zlib
    Codec ID                    : S_HDMV/PGS
    Codec ID/Info               : Picture based subtitle format used on BDs/HD-DVDs
    Duration                    : 1 h 30 min
    Bit rate                    : 37.1 kb/s
    Count of elements           : 2537
    Stream size                 : 24.0 MiB (0%)
    Title                       : Ingles-PGS [CinemaniaHDD]
    Language                    : English
    Default                     : No
    Forced                      : No
    Original source medium      : Blu-ray

    Text #4
    ID                          : 7
    Format                      : UTF-8
    Codec ID                    : S_TEXT/UTF8
    Codec ID/Info               : UTF-8 Plain Text
    Duration                    : 1 h 16 min
    Bit rate                    : 0 b/s
    Count of elements           : 15
    Stream size                 : 482 Bytes (0%)
    Title                       : Forzados-SRT [CinemaniaHDD]
    Language                    : Spanish
    Default                     : Yes
    Forced                      : Yes

    Text #5
    ID                          : 8
    Format                      : UTF-8
    Codec ID                    : S_TEXT/UTF8
    Codec ID/Info               : UTF-8 Plain Text
    Duration                    : 1 h 28 min
    Bit rate                    : 57 b/s
    Count of elements           : 1065
    Stream size                 : 37.1 KiB (0%)
    Title                       : Español-SRT [CinemaniaHDD]
    Language                    : Spanish
    Default                     : No
    Forced                      : No

    Menu
    00:00:00.000                : Chapter 01
    00:05:59.609                : Chapter 02
    00:09:11.175                : Chapter 03
    00:12:20.364                : Chapter 04
    00:15:23.672                : Chapter 05
    00:18:04.583                : Chapter 06
    00:21:51.935                : Chapter 07
    00:26:27.586                : Chapter 08
    00:32:45.505                : Chapter 09
    00:35:29.252                : Chapter 10
    00:39:48.636                : Chapter 11
    00:43:11.130                : Chapter 12
    00:45:56.295                : Chapter 13
    00:48:46.089                : Chapter 14
    00:50:52.674                : Chapter 15
    00:55:45.258                : Chapter 16
    00:59:51.629                : Chapter 17
    01:01:13.503                : Chapter 18
    01:06:13.135                : Chapter 19
    01:12:15.998                : Chapter 20
    01:18:15.565                : Chapter 21
    01:23:24.416                : Chapter 22
    01:26:15.295                : Chapter 23
    01:29:48.758                : Chapter 24

  • Peso: 19.5 GiB

Sinopsis

Descargar La isla de Nim (2008) REMUX 1080p Latino. Nim y su padre Jack son los únicos habitantes de una remota y exótica isla. Aunque no va a la escuela, Nim ayuda a su padre a realizar diariamente anotaciones científicas, se ocupa de cuidar el huerto y de que el panel solar alimente el ordenador, a través del cual Jack se comunica con el mundo. Un buen día, tras la desaparición de su padre, Nim entra en contacto con una famosa escritora de novelas de aventuras que irá a visitarla.

Disponible Solo Para VIP!!! 

Ficha técnica

Video trailer de la película

Enlaces de descarga

Rip de Bluray

Descargar La isla de Nim (2008) REMUX 1080p Latino


Aportes de DPeliculasHDmega la pass es:dpeliculashdmega.org Aportes de CinemaniaHD la pass es:cinemaniahdd.com
Guardado en : Aventura , Comedia , Familia , Fantasía , Remux

Películas relacionadas

descargar La isla de Nim (2008) REMUX 1080p Latino Full 1080p 1080p gratis, La isla de Nim (2008) REMUX 1080p Latino Full 1080p mega 1 link, La isla de Nim (2008) REMUX 1080p Latino Full 1080p pelicula completa, descargar La isla de Nim (2008) REMUX 1080p Latino Full 1080p gratis en mega.

La isla de Nim (2008) REMUX 1080p Latino pelicula full hd, La isla de Nim (2008) REMUX 1080p Latino mega latino, La isla de Nim (2008) REMUX 1080p Latino 4k latino, La isla de Nim (2008) REMUX 1080p Latino pelicula completa, La isla de Nim (2008) REMUX 1080p Latino descargar gratis, descargar La isla de Nim (2008) REMUX 1080p Latino pelicula latino, La isla de Nim (2008) REMUX 1080p Latino 1 link mega, La isla de Nim (2008) REMUX 1080p Latino 1 link google drive, La isla de Nim (2008) REMUX 1080p Latino hd 1080p latino.
Comentarios 0