×

¿Problemas para descargar con Mozilla, EDGE? Deshabilita la opción "Abrir vinculos en una pestaña nueva" tal como lo muestra ésta imagen.

Nightmare Alley (2021) REMUX 4K HDR Latino – CMHDD

453 vistas

Información de Nightmare Alley (2021) REMUX 4K HDR Latino – CMHDD

Datos de la película

  • Calidad: 4K HDR
  • Audio: Español Latino AC3 5.1 BLURAY - Ingles AC3 5.1 BLURAY
  • Subtitulos: Español Latino PGS
  • Resolución: 3840x2160p
  • Formato: MKV
  • Codec: H.264
  • Encoder: Dracarys
  • Mediainfo: Clic para Mostrar Datos Ver
  • Format                      : Matroska
    Format version              : Version 4
    File size                   : 54.8 GiB
    Duration                    : 2 h 30 min
    Overall bit rate mode       : Variable
    Overall bit rate            : 52.2 Mb/s
    Movie name                  : Nightmare Alley (2021) REMUX 4K HDR Latino - CMHDD
    Encoded date                : UTC 2022-06-29 03:21:23
    Writing application         : mkvmerge v17.0.0 ('Be Ur Friend') 64-bit
    Writing library             : libebml v1.3.5 + libmatroska v1.4.8

    Video
    ID                          : 1
    Format                      : HEVC
    Format/Info                 : High Efficiency Video Coding
    Format profile              : Main 10@L5.1@High
    HDR format                  : SMPTE ST 2086, HDR10 compatible
    Codec ID                    : V_MPEGH/ISO/HEVC
    Duration                    : 2 h 30 min
    Bit rate                    : 46.4 Mb/s
    Width                       : 3 840 pixels
    Height                      : 2 160 pixels
    Display aspect ratio        : 16:9
    Frame rate mode             : Constant
    Frame rate                  : 23.976 (24000/1001) FPS
    Color space                 : YUV
    Chroma subsampling          : 4:2:0 (Type 2)
    Bit depth                   : 10 bits
    Bits/(Pixel*Frame)          : 0.233
    Stream size                 : 48.6 GiB (89%)
    Default                     : Yes
    Forced                      : No
    Color range                 : Limited
    Color primaries             : BT.2020
    Transfer characteristics    : PQ
    Matrix coefficients         : BT.2020 non-constant
    Mastering display color pri : Display P3
    Mastering display luminance : min: 0.0050 cd/m2, max: 1000 cd/m2

    Audio #1
    ID                          : 2
    Format                      : MLP FBA 16-ch
    Format/Info                 : Meridian Lossless Packing FBA with 16-channel presentation
    Commercial name             : Dolby TrueHD with Dolby Atmos
    Codec ID                    : A_TRUEHD
    Duration                    : 2 h 30 min
    Bit rate mode               : Variable
    Bit rate                    : 4 519 kb/s
    Maximum bit rate            : 7 362 kb/s
    Channel(s)                  : 8 channels
    Channel layout              : L R C LFE Ls Rs Lb Rb
    Sampling rate               : 48.0 kHz
    Frame rate                  : 1 200.000 FPS (40 SPF)
    Compression mode            : Lossless
    Stream size                 : 4.74 GiB (9%)
    Language                    : English
    Default                     : No
    Forced                      : No
    Number of dynamic objects   : 13
    Bed channel count           : 1 channel
    Bed channel configuration   : LFE

    Audio #2
    ID                          : 3
    Format                      : AC-3
    Format/Info                 : Audio Coding 3
    Commercial name             : Dolby Digital
    Codec ID                    : A_AC3
    Duration                    : 2 h 30 min
    Bit rate mode               : Constant
    Bit rate                    : 640 kb/s
    Channel(s)                  : 6 channels
    Channel layout              : L R C LFE Ls Rs
    Sampling rate               : 48.0 kHz
    Frame rate                  : 31.250 FPS (1536 SPF)
    Compression mode            : Lossy
    Stream size                 : 687 MiB (1%)
    Language                    : English
    Service kind                : Complete Main
    Default                     : No
    Forced                      : No

    Audio #3
    ID                          : 4
    Format                      : AC-3
    Format/Info                 : Audio Coding 3
    Commercial name             : Dolby Digital
    Codec ID                    : A_AC3
    Duration                    : 2 h 30 min
    Bit rate mode               : Constant
    Bit rate                    : 640 kb/s
    Channel(s)                  : 6 channels
    Channel layout              : L R C LFE Ls Rs
    Sampling rate               : 48.0 kHz
    Frame rate                  : 31.250 FPS (1536 SPF)
    Compression mode            : Lossy
    Stream size                 : 687 MiB (1%)
    Language                    : Spanish
    Service kind                : Complete Main
    Default                     : Yes
    Forced                      : No

    Text #1
    ID                          : 5
    Format                      : PGS
    Muxing mode                 : zlib
    Codec ID                    : S_HDMV/PGS
    Codec ID/Info               : Picture based subtitle format used on BDs/HD-DVDs
    Duration                    : 2 h 18 min
    Bit rate                    : 35.7 kb/s
    Count of elements           : 3737
    Stream size                 : 35.4 MiB (0%)
    Language                    : Spanish
    Default                     : No
    Forced                      : No

    Text #2
    ID                          : 6
    Format                      : PGS
    Muxing mode                 : zlib
    Codec ID                    : S_HDMV/PGS
    Codec ID/Info               : Picture based subtitle format used on BDs/HD-DVDs
    Duration                    : 2 h 10 min
    Bit rate                    : 72 b/s
    Count of elements           : 8
    Stream size                 : 69.4 KiB (0%)
    Language                    : Spanish
    Default                     : No
    Forced                      : No

    Menu
    00:00:00.000                : en:Chapter 1
    00:06:01.611                : en:Chapter 2
    00:08:32.386                : en:Chapter 3
    00:14:11.392                : en:Chapter 4
    00:18:53.507                : en:Chapter 5
    00:22:54.748                : en:Chapter 6
    00:29:34.230                : en:Chapter 7
    00:34:22.268                : en:Chapter 8
    00:41:27.318                : en:Chapter 9
    00:50:50.088                : en:Chapter 10
    01:00:07.395                : en:Chapter 11
    01:10:43.155                : en:Chapter 12
    01:18:20.362                : en:Chapter 13
    01:27:15.855                : en:Chapter 14
    01:38:15.472                : en:Chapter 15
    01:47:08.588                : en:Chapter 16
    01:52:52.932                : en:Chapter 17
    01:58:58.756                : en:Chapter 18
    02:05:42.618                : en:Chapter 19
    02:14:06.788                : en:Chapter 20
    02:20:56.990                : en:Chapter 21

  • Peso: 54.8 GiB

Sinopsis

Un buscavidas se compincha con una pitonisa para engañar a la gente y conseguir dinero… Remake del film «El callejón de las almas perdidas» (Nightmare Alley) de 1947.

Ficha técnica

Video trailer de la película

Enlaces de descarga

Rip de Bluray

Descargar Nightmare Alley (2021) REMUX 4K HDR Latino – CMHDD


Aportes de DPeliculasHDmega la pass es:dpeliculashdmega.org Aportes de CinemaniaHD la pass es:cinemaniahdd.com
Guardado en : Crimen , Drama , Suspenso

Películas relacionadas

Nightmare Alley (2021) REMUX 4K HDR Latino – CMHDD pelicula full hd, Nightmare Alley (2021) REMUX 4K HDR Latino – CMHDD mega latino, Nightmare Alley (2021) REMUX 4K HDR Latino – CMHDD 4k latino, Nightmare Alley (2021) REMUX 4K HDR Latino – CMHDD pelicula completa, Nightmare Alley (2021) REMUX 4K HDR Latino – CMHDD descargar gratis, descargar Nightmare Alley (2021) REMUX 4K HDR Latino – CMHDD pelicula latino, Nightmare Alley (2021) REMUX 4K HDR Latino – CMHDD 1 link mega, Nightmare Alley (2021) REMUX 4K HDR Latino – CMHDD 1 link google drive, Nightmare Alley (2021) REMUX 4K HDR Latino – CMHDD hd 1080p latino.
Comentarios 0