×

¿Problemas para descargar con Mozilla, EDGE? Deshabilita la opción "Abrir vinculos en una pestaña nueva" tal como lo muestra ésta imagen.

El callejón de las almas perdidas (1947) «Criterion Collection» REMUX 1080p SUB

585 vistas

Información de El callejón de las almas perdidas (1947) «Criterion Collection» REMUX 1080p SUB

Datos de la película

  • Calidad: Full 1080p
  • Audio: Se especifica abajo de la Sinopsis
  • Subtitulos: Español Latino SRT
  • Resolución: 1920x1080p
  • Formato: MKV
  • Codec: H.264
  • Encoder: CinefiloCool
  • Mediainfo: Clic para Mostrar Datos Ver
  • Nightmare Alley CC (1947) REMUX 1080p SUB-CMHDD.mkv
    Format                      : Matroska
    Format version              : Version 4
    File size                   : 28.4 GiB
    Duration                    : 1 h 51 min
    Overall bit rate mode       : Variable
    Overall bit rate            : 36.4 Mb/s
    Movie name                  : Nightmare Alley (1947) CinemaniaHDD.Net
    Encoded date                : UTC 2022-02-25 04:41:58
    Writing application         : mkvmerge v56.1.0 ('My Friend') 64-bit
    Writing library             : libebml v1.4.2 + libmatroska v1.6.4
    Attachments                 : CINEMANIAHD.png

    Video
    ID                          : 1
    Format                      : AVC
    Format/Info                 : Advanced Video Codec
    Format profile              : High@L4.1
    Format settings             : CABAC / 4 Ref Frames
    Format settings, CABAC      : Yes
    Format settings, Reference  : 4 frames
    Format settings, GOP        : M=3, N=12
    Codec ID                    : V_MPEG4/ISO/AVC
    Duration                    : 1 h 51 min
    Bit rate mode               : Variable
    Bit rate                    : 35.6 Mb/s
    Maximum bit rate            : 37.0 Mb/s
    Width                       : 1 920 pixels
    Height                      : 1 080 pixels
    Display aspect ratio        : 16:9
    Frame rate mode             : Constant
    Frame rate                  : 23.976 (24000/1001) FPS
    Color space                 : YUV
    Chroma subsampling          : 4:2:0
    Bit depth                   : 8 bits
    Scan type                   : Progressive
    Bits/(Pixel*Frame)          : 0.715
    Stream size                 : 27.7 GiB (98%)
    Title                       : REMUX HD1080p [CinemaniaHDD]
    Default                     : Yes
    Forced                      : Yes

    Audio #1
    ID                          : 2
    Format                      : FLAC
    Format/Info                 : Free Lossless Audio Codec
    Codec ID                    : A_FLAC
    Duration                    : 1 h 51 min
    Bit rate mode               : Variable
    Bit rate                    : 579 kb/s
    Channel(s)                  : 1 channel
    Channel layout              : C
    Sampling rate               : 48.0 kHz
    Frame rate                  : 11.719 FPS (4096 SPF)
    Bit depth                   : 24 bits
    Compression mode            : Lossless
    Stream size                 : 462 MiB (2%)
    Title                       : Ingles [CinemaniaHDD]
    Writing library             : libFLAC 1.2.1 (UTC 2007-09-17)
    Language                    : English
    Default                     : No
    Forced                      : No

    Audio #2
    ID                          : 3
    Format                      : AC-3
    Format/Info                 : Audio Coding 3
    Commercial name             : Dolby Digital
    Codec ID                    : A_AC3
    Duration                    : 1 h 51 min
    Bit rate mode               : Constant
    Bit rate                    : 256 kb/s
    Channel(s)                  : 2 channels
    Channel layout              : L R
    Sampling rate               : 48.0 kHz
    Frame rate                  : 31.250 FPS (1536 SPF)
    Compression mode            : Lossy
    Stream size                 : 204 MiB (1%)
    Title                       : Ingles AC3 [CinemaniaHDD]
    Language                    : English
    Service kind                : Complete Main
    Default                     : Yes
    Forced                      : Yes

    Text #1
    ID                          : 4
    Format                      : UTF-8
    Codec ID                    : S_TEXT/UTF8
    Codec ID/Info               : UTF-8 Plain Text
    Duration                    : 1 h 50 min
    Bit rate                    : 71 b/s
    Count of elements           : 1479
    Stream size                 : 58.0 KiB (0%)
    Title                       : Español Latino-SRT [CinemaniaHDD]
    Language                    : Spanish
    Default                     : Yes
    Forced                      : Yes

    Text #2
    ID                          : 5
    Format                      : PGS
    Muxing mode                 : zlib
    Codec ID                    : S_HDMV/PGS
    Codec ID/Info               : Picture based subtitle format used on BDs/HD-DVDs
    Duration                    : 1 h 49 min
    Bit rate                    : 69.1 kb/s
    Count of elements           : 3255
    Stream size                 : 54.3 MiB (0%)
    Title                       : Ingles-PGS [CinemaniaHDD]
    Language                    : English
    Default                     : No
    Forced                      : No

    Menu
    00:00:00.000                : Chapter 01
    00:10:18.618                : Chapter 02
    00:20:32.440                : Chapter 03
    00:28:49.937                : Chapter 04
    00:31:55.539                : Chapter 05
    00:42:40.433                : Chapter 06
    00:48:23.109                : Chapter 07
    00:52:40.157                : Chapter 08
    00:59:57.219                : Chapter 09
    01:08:05.707                : Chapter 10
    01:13:32.408                : Chapter 11
    01:17:47.872                : Chapter 12
    01:24:41.076                : Chapter 13
    01:30:33.386                : Chapter 14
    01:40:05.625                : Chapter 15
    01:44:33.684                : Chapter 16

  • Peso: 28.4 GiB

Sinopsis

Descargar El callejón de las almas perdidas (1947) «Criterion Collection» REMUX 1080p SUB. Un ambicioso aspirante a artista de circo (Tyrone Power) está dispuesto a todo con tal de alcanzar la cima del éxito. Cuando encuentra el secreto de un truco de feria, decide montar un próspero negocio con unas ayudantes…

Audio Ingles LPCM Mono + AC3 Mono Bluray
Disponible Solo Para VIP!!!

Ficha técnica

Video trailer de la película

Enlaces de descarga

Rip de Bluray

Descargar El callejón de las almas perdidas (1947) «Criterion Collection» REMUX 1080p SUB


Aportes de DPeliculasHDmega la pass es:dpeliculashdmega.org Aportes de CinemaniaHD la pass es:cinemaniahdd.com
Guardado en : Crimen , Drama , Remux

Películas relacionadas

  • Paradise Highway (2022) HD 1080p Latino

    Paradise Highway (2022) HD 1080p Latino

    2022
    Paradise Highway (2022) HD 1080p Latino

    1h 55m 2022

    Descargar Paradise Highway (2022) HD 1080p Latino. Un camionero se ha visto obligado a pasar de contrabando...

    Director: Anna Gutto

    Género: Crimen

    Actores: Xavier Scott Evans

  • Paradise Highway (2022) PLACEBO Full HD 1080p Latino

    Paradise Highway (2022) PLACEBO Full HD 1080p Latino

    2022
    Paradise Highway (2022) PLACEBO Full HD 1080p Latino

    1h 55m 2022

    Descargar Paradise Highway (2022) PLACEBO Full HD 1080p Latino. Un camionero se ha visto obligado a pasar...

    Director: Anna Gutto

    Género: Crimen

    Actores: Xavier Scott Evans

  • Paradise Highway (2022) REMUX 1080p Latino

    Paradise Highway (2022) REMUX 1080p Latino

    2022
    Paradise Highway (2022) REMUX 1080p Latino

    1h 55m 2022

    Descargar Paradise Highway (2022) REMUX 1080p Latino. Un camionero se ha visto obligado a pasar de contrabando...

    Director: Anna Gutto

    Género: Crimen

    Actores: Xavier Scott Evans

descargar El callejón de las almas perdidas (1947) «Criterion Collection» REMUX 1080p SUB Full 1080p 1080p gratis, El callejón de las almas perdidas (1947) «Criterion Collection» REMUX 1080p SUB Full 1080p mega 1 link, El callejón de las almas perdidas (1947) «Criterion Collection» REMUX 1080p SUB Full 1080p pelicula completa, descargar El callejón de las almas perdidas (1947) «Criterion Collection» REMUX 1080p SUB Full 1080p gratis en mega.

El callejón de las almas perdidas (1947) «Criterion Collection» REMUX 1080p SUB pelicula full hd, El callejón de las almas perdidas (1947) «Criterion Collection» REMUX 1080p SUB mega latino, El callejón de las almas perdidas (1947) «Criterion Collection» REMUX 1080p SUB 4k latino, El callejón de las almas perdidas (1947) «Criterion Collection» REMUX 1080p SUB pelicula completa, El callejón de las almas perdidas (1947) «Criterion Collection» REMUX 1080p SUB descargar gratis, descargar El callejón de las almas perdidas (1947) «Criterion Collection» REMUX 1080p SUB pelicula latino, El callejón de las almas perdidas (1947) «Criterion Collection» REMUX 1080p SUB 1 link mega, El callejón de las almas perdidas (1947) «Criterion Collection» REMUX 1080p SUB 1 link google drive, El callejón de las almas perdidas (1947) «Criterion Collection» REMUX 1080p SUB hd 1080p latino.
Comentarios 0