×

¿Problemas para descargar con Mozilla, EDGE? Deshabilita la opción "Abrir vinculos en una pestaña nueva" tal como lo muestra ésta imagen.

El callejón de las almas perdidas (1947) 1080p SUB

240 vistas

Información de El callejón de las almas perdidas (1947) 1080p SUB

Datos de la película

  • Calidad: 1080p
  • Audio: Se especifica abajo de la Sinopsis
  • Subtitulos: Español Latino SRT - Ingles SRT
  • Resolución: 1480x1080p
  • Formato: MKV
  • Codec: H.264
  • Encoder: CinefiloCool
  • Mediainfo: Clic para Mostrar Datos Ver
  • Nightmare Alley CC (1947) 1080p SUB-CMHDD.mkv
    Format                      : Matroska
    Format version              : Version 4
    File size                   : 2.93 GiB
    Duration                    : 1 h 51 min
    Overall bit rate            : 3 758 kb/s
    Movie name                  : Nightmare Alley (1947) CinemaniaHDD.Net
    Encoded date                : UTC 2023-07-25 04:18:31
    Writing application         : mkvmerge v56.1.0 ('My Friend') 64-bit
    Writing library             : libebml v1.4.2 + libmatroska v1.6.4
    Attachments                 : CINEMANIAHD.png

    Video
    ID                          : 1
    Format                      : AVC
    Format/Info                 : Advanced Video Codec
    Format profile              : High@L4.1
    Format settings             : CABAC / 5 Ref Frames
    Format settings, CABAC      : Yes
    Format settings, Reference  : 5 frames
    Codec ID                    : V_MPEG4/ISO/AVC
    Duration                    : 1 h 51 min
    Bit rate                    : 3 500 kb/s
    Width                       : 1 480 pixels
    Height                      : 1 080 pixels
    Display aspect ratio        : 1.370
    Frame rate mode             : Constant
    Frame rate                  : 23.976 (24000/1001) FPS
    Color space                 : YUV
    Chroma subsampling          : 4:2:0
    Bit depth                   : 8 bits
    Scan type                   : Progressive
    Bits/(Pixel*Frame)          : 0.091
    Stream size                 : 2.73 GiB (93%)
    Title                       : HD1080p [CinemaniaHDD]
    Writing library             : x264 core 163 r3059 b684ebe0
    Encoding settings           : cabac=1 / ref=5 / deblock=1:-1:-1 / analyse=0x3:0x133 / me=umh / subme=9 / psy=1 / psy_rd=1.00:0.15 / mixed_ref=1 / me_range=16 / chroma_me=1 / trellis=2 / 8x8dct=1 / cqm=0 / deadzone=21,11 / fast_pskip=1 / chroma_qp_offset=-3 / threads=24 / lookahead_threads=2 / sliced_threads=0 / nr=0 / decimate=1 / interlaced=0 / bluray_compat=0 / constrained_intra=0 / bframes=3 / b_pyramid=2 / b_adapt=2 / b_bias=0 / direct=3 / weightb=1 / open_gop=0 / weightp=2 / keyint=240 / keyint_min=24 / scenecut=40 / intra_refresh=0 / rc_lookahead=60 / rc=2pass / mbtree=1 / bitrate=3500 / ratetol=1.0 / qcomp=0.60 / qpmin=0 / qpmax=69 / qpstep=4 / cplxblur=20.0 / qblur=0.5 / vbv_maxrate=62500 / vbv_bufsize=78125 / nal_hrd=none / filler=0 / ip_ratio=1.40 / aq=1:1.00
    Default                     : Yes
    Forced                      : Yes
    Color range                 : Limited
    Color primaries             : BT.709
    Transfer characteristics    : BT.709
    Matrix coefficients         : BT.709

    Audio
    ID                          : 2
    Format                      : AC-3
    Format/Info                 : Audio Coding 3
    Commercial name             : Dolby Digital
    Codec ID                    : A_AC3
    Duration                    : 1 h 51 min
    Bit rate mode               : Constant
    Bit rate                    : 256 kb/s
    Channel(s)                  : 2 channels
    Channel layout              : L R
    Sampling rate               : 48.0 kHz
    Frame rate                  : 31.250 FPS (1536 SPF)
    Compression mode            : Lossy
    Stream size                 : 204 MiB (7%)
    Title                       : Ingles [CinemaniaHDD]
    Language                    : English
    Service kind                : Complete Main
    Default                     : Yes
    Forced                      : Yes

    Text #1
    ID                          : 3
    Format                      : UTF-8
    Codec ID                    : S_TEXT/UTF8
    Codec ID/Info               : UTF-8 Plain Text
    Duration                    : 1 h 50 min
    Bit rate                    : 71 b/s
    Count of elements           : 1479
    Stream size                 : 58.0 KiB (0%)
    Title                       : Español Latino-SRT [CinemaniaHDD]
    Language                    : Spanish
    Default                     : Yes
    Forced                      : Yes

    Text #2
    ID                          : 4
    Format                      : UTF-8
    Codec ID                    : S_TEXT/UTF8
    Codec ID/Info               : UTF-8 Plain Text
    Duration                    : 1 h 49 min
    Bit rate                    : 81 b/s
    Count of elements           : 1622
    Stream size                 : 65.9 KiB (0%)
    Title                       : Ingles-SRT [CinemaniaHDD]
    Language                    : English
    Default                     : No
    Forced                      : No

    Menu
    00:00:00.000                : Chapter 01
    00:10:18.618                : Chapter 02
    00:20:32.440                : Chapter 03
    00:28:49.937                : Chapter 04
    00:31:55.539                : Chapter 05
    00:42:40.433                : Chapter 06
    00:48:23.109                : Chapter 07
    00:52:40.157                : Chapter 08
    00:59:57.219                : Chapter 09
    01:08:05.707                : Chapter 10
    01:13:32.408                : Chapter 11
    01:17:47.872                : Chapter 12
    01:24:41.076                : Chapter 13
    01:30:33.386                : Chapter 14
    01:40:05.625                : Chapter 15
    01:44:33.684                : Chapter 16

  • Peso: 2.93 GiB

Sinopsis

Descargar El callejón de las almas perdidas (1947) 1080p SUB. Un ambicioso aspirante a artista de circo (Tyrone Power) está dispuesto a todo con tal de alcanzar la cima del éxito. Cuando encuentra el secreto de un truco de feria, decide montar un próspero negocio con unas ayudantes…

Audio Ingles AC3 Mono Bluray

Ficha técnica

Video trailer de la película

Enlaces de descarga

Rip de Bluray

Descargar El callejón de las almas perdidas (1947) 1080p SUB




Aportes de DPeliculasHDmega la pass es:dpeliculashdmega.org Aportes de CinemaniaHD la pass es:cinemaniahdd.com Aportes recientes:cinemaniahdd.net
Guardado en : Crimen , Drama , HD 1080p , Suspenso

Películas relacionadas

descargar El callejón de las almas perdidas (1947) 1080p SUB 1080p 1080p gratis, El callejón de las almas perdidas (1947) 1080p SUB 1080p mega 1 link, El callejón de las almas perdidas (1947) 1080p SUB 1080p pelicula completa, descargar El callejón de las almas perdidas (1947) 1080p SUB 1080p gratis en mega.

El callejón de las almas perdidas (1947) 1080p SUB pelicula full hd, El callejón de las almas perdidas (1947) 1080p SUB mega latino, El callejón de las almas perdidas (1947) 1080p SUB 4k latino, El callejón de las almas perdidas (1947) 1080p SUB pelicula completa, El callejón de las almas perdidas (1947) 1080p SUB descargar gratis, descargar El callejón de las almas perdidas (1947) 1080p SUB pelicula latino, El callejón de las almas perdidas (1947) 1080p SUB 1 link mega, El callejón de las almas perdidas (1947) 1080p SUB 1 link google drive, El callejón de las almas perdidas (1947) 1080p SUB hd 1080p latino.
Comentarios 0