×

¿Problemas para descargar con Mozilla, EDGE? Deshabilita la opción "Abrir vinculos en una pestaña nueva" tal como lo muestra ésta imagen.

Nightlife (2020) REMUX 1080p Latino

186 vistas

Información de Nightlife (2020) REMUX 1080p Latino

Datos de la película

  • Calidad: Full 1080p
  • Audio: Se especifica abajo de la Sinopsis
  • Subtitulos: Español Latino SRT- FORZADOS SRT
  • Resolución: 1920x1080p
  • Formato: MKV
  • Codec: H.264
  • Encoder: Melkor
  • Mediainfo: Clic para Mostrar Datos Ver
  • Nightlife (2020) REMUX 1080p Latino.mkv
    Format                      : Matroska
    Format version              : Version 4
    File size                   : 26.3 GiB
    Duration                    : 1 h 55 min
    Overall bit rate mode       : Variable
    Overall bit rate            : 32.6 Mb/s
    Movie name                  : Nightlife (2020) CinemaniaHDD.Net
    Encoded date                : UTC 2020-12-08 00:00:49
    Writing application         : mkvmerge v51.0.0 ('I Wish') 64-bit
    Writing library             : libebml v1.4.0 + libmatroska v1.6.2
    Attachments                 : CINEMANIAHD.png

    Video
    ID                          : 1
    Format                      : AVC
    Format/Info                 : Advanced Video Codec
    Format profile              : High@L4.1
    Format settings             : CABAC / 3 Ref Frames
    Format settings, CABAC      : Yes
    Format settings, Reference  : 3 frames
    Codec ID                    : V_MPEG4/ISO/AVC
    Duration                    : 1 h 55 min
    Bit rate mode               : Variable
    Bit rate                    : 28.0 Mb/s
    Maximum bit rate            : 35.0 Mb/s
    Width                       : 1 920 pixels
    Height                      : 1 080 pixels
    Display aspect ratio        : 16:9
    Frame rate mode             : Constant
    Frame rate                  : 23.976 (24000/1001) FPS
    Color space                 : YUV
    Chroma subsampling          : 4:2:0
    Bit depth                   : 8 bits
    Scan type                   : Progressive
    Bits/(Pixel*Frame)          : 0.563
    Stream size                 : 22.5 GiB (86%)
    Title                       : REMUX HD1080p [CinemaniaHDD]
    Language                    : German
    Default                     : Yes
    Forced                      : Yes

    Audio #1
    ID                          : 2
    Format                      : AC-3
    Format/Info                 : Audio Coding 3
    Commercial name             : Dolby Digital
    Codec ID                    : A_AC3
    Duration                    : 1 h 55 min
    Bit rate mode               : Constant
    Bit rate                    : 256 kb/s
    Channel(s)                  : 2 channels
    Channel layout              : L R
    Sampling rate               : 48.0 kHz
    Frame rate                  : 31.250 FPS (1536 SPF)
    Compression mode            : Lossy
    Stream size                 : 211 MiB (1%)
    Title                       : Español Latino [CinemaniaHDD]
    Language                    : Spanish
    Service kind                : Complete Main
    Default                     : Yes
    Forced                      : Yes

    Audio #2
    ID                          : 3
    Format                      : DTS ES XLL
    Format/Info                 : Digital Theater Systems
    Commercial name             : DTS-HD Master Audio
    Codec ID                    : A_DTS
    Duration                    : 1 h 55 min
    Bit rate mode               : Variable
    Bit rate                    : 4 355 kb/s
    Channel(s)                  : 8 channels
    Channel layout              : C L R Ls Rs LFE Lb Rb
    Sampling rate               : 48.0 kHz
    Frame rate                  : 93.750 FPS (512 SPF)
    Bit depth                   : 24 bits
    Compression mode            : Lossless
    Stream size                 : 3.51 GiB (13%)
    Title                       : Aleman [CinemaniaHDD]
    Language                    : German
    Default                     : No
    Forced                      : No

    Text #1
    ID                          : 4
    Format                      : UTF-8
    Codec ID                    : S_TEXT/UTF8
    Codec ID/Info               : UTF-8 Plain Text
    Duration                    : 41 min 41 s
    Bit rate                    : 0 b/s
    Count of elements           : 6
    Stream size                 : 111 Bytes (0%)
    Title                       : Forzados-SRT [CinemaniaHDD]
    Language                    : Spanish
    Default                     : Yes
    Forced                      : Yes

    Text #2
    ID                          : 5
    Format                      : UTF-8
    Codec ID                    : S_TEXT/UTF8
    Codec ID/Info               : UTF-8 Plain Text
    Duration                    : 1 h 49 min
    Bit rate                    : 60 b/s
    Count of elements           : 1532
    Stream size                 : 48.2 KiB (0%)
    Title                       : Español-SRT [CinemaniaHDD]
    Language                    : Spanish
    Default                     : No
    Forced                      : No

    Text #3
    ID                          : 6
    Format                      : UTF-8
    Codec ID                    : S_TEXT/UTF8
    Codec ID/Info               : UTF-8 Plain Text
    Duration                    : 1 h 54 min
    Bit rate                    : 72 b/s
    Count of elements           : 1596
    Stream size                 : 61.3 KiB (0%)
    Title                       : Aleman-SRT [CinemaniaHDD]
    Language                    : German
    Default                     : No
    Forced                      : No

    Menu
    00:00:00.000                : en:00:00:00.000
    00:09:41.748                : en:00:09:41.748
    00:18:27.148                : en:00:18:27.148
    00:26:49.566                : en:00:26:49.566
    00:35:57.197                : en:00:35:57.197
    00:43:24.727                : en:00:43:24.727
    00:52:22.473                : en:00:52:22.473
    01:02:01.468                : en:01:02:01.468
    01:11:18.649                : en:01:11:18.649
    01:20:52.222                : en:01:20:52.222
    01:29:11.680                : en:01:29:11.680
    01:41:01.097                : en:01:41:01.097

  • Peso: 26.3 GiB

Sinopsis

Descargar Nightlife (2020) REMUX 1080p Latino. Milo es un barman que vive una vida de fiestas y noches interminables. Cierto día, una serie de coincidencias lo llevan a conocer a Sunny, la mujer de sus sueños, y ambos acuerdan una cita. Pero la noche que tenía todo para ser romántica se convierte en un caos cuando el amigo de Milo, Renzo, aparece de la nada con todo el submundo de Berlín a sus espaldas.

Español Latino AC3 2.0 WebDL – Aleman DTS-HD 7.1 Bluray

Ficha técnica

Video trailer de la película

Enlaces de descarga

Rip de Bluray

Descargar Nightlife (2020) REMUX 1080p Latino




Aportes de DPeliculasHDmega la pass es:dpeliculashdmega.org Aportes de CinemaniaHD la pass es:cinemaniahdd.com
Guardado en : Comedia , Remux , Romance

Películas relacionadas

  • Men in Black (1997) REMUX 4K HDR Latino – CMHDD

    Men in Black (1997) REMUX 4K HDR Latino – CMHDD

    1997
    Men in Black (1997) REMUX 4K HDR Latino – CMHDD

    1h 34m 1997

    Durante muchos años los extraterrestres han vivido en la Tierra, mezclados con los humanos, sin que...

    Director: Tyrone S. Walker

    Género: Acción

    Actores: Willie C. Carpenter

  • Borrego: Sal Del Camino (2022) REMUX 1080p Latino

    Borrego: Sal Del Camino (2022) REMUX 1080p Latino

    2022
    Borrego: Sal Del Camino (2022) REMUX 1080p Latino

    1h 42m 2022

    Descargar Borrego: Sal Del Camino (2022) REMUX 1080p Latino. Una joven botánica se traslada a un pequeño...

    Director: Jesse Harris

    Género: Crimen

    Actores: Olivia Trujillo

  • Tren Bala (2022) WEB-DL 4K UHD HDR Latino

    Tren Bala (2022) WEB-DL 4K UHD HDR Latino

    2022
    Tren Bala (2022) WEB-DL 4K UHD HDR Latino

    2h 7m 2022

    Descargar Tren Bala (2022) WEB-DL 4K UHD HDR Latino. El desafortunado asesino "Catarina" está decidido...

    Director: Paul Barry

    Género: 4K HDR

    Actores: Zooey Miyoshi

  • Tren Bala (2022) AMZN WEB-DL 1080p Latino

    Tren Bala (2022) AMZN WEB-DL 1080p Latino

    2022
    Tren Bala (2022) AMZN WEB-DL 1080p Latino

    2h 7m 2022

    Descargar Tren Bala (2022) AMZN WEB-DL 1080p Latino. Cinco asesinos a sueldo se encuentran a bordo de...

    Director: Paul Barry

    Género: Acción

    Actores: Zooey Miyoshi

descargar Nightlife (2020) REMUX 1080p Latino Full 1080p 1080p gratis, Nightlife (2020) REMUX 1080p Latino Full 1080p mega 1 link, Nightlife (2020) REMUX 1080p Latino Full 1080p pelicula completa, descargar Nightlife (2020) REMUX 1080p Latino Full 1080p gratis en mega.

Nightlife (2020) REMUX 1080p Latino pelicula full hd, Nightlife (2020) REMUX 1080p Latino mega latino, Nightlife (2020) REMUX 1080p Latino 4k latino, Nightlife (2020) REMUX 1080p Latino pelicula completa, Nightlife (2020) REMUX 1080p Latino descargar gratis, descargar Nightlife (2020) REMUX 1080p Latino pelicula latino, Nightlife (2020) REMUX 1080p Latino 1 link mega, Nightlife (2020) REMUX 1080p Latino 1 link google drive, Nightlife (2020) REMUX 1080p Latino hd 1080p latino.
Comentarios 0