×

¿Problemas para descargar con Mozilla, EDGE? Deshabilita la opción "Abrir vinculos en una pestaña nueva" tal como lo muestra ésta imagen.

Night Watch (2004) REMUX 1080p Latino – CMHDD

177 vistas

Información de Night Watch (2004) REMUX 1080p Latino – CMHDD

Datos de la película

  • Calidad: Full 1080p
  • Audio: Español Latino AC3 5.1 BLURAY - Ingles DTS 5.1 BLURAY
  • Subtitulos: Español Latino PGS
  • Resolución: 1920x1080p
  • Formato: MKV
  • Codec: H.264
  • Encoder: Dracarys
  • Mediainfo: Clic para Mostrar Datos Ver
  • Format                      : Matroska
    Format version              : Version 4
    File size                   : 28.4 GiB
    Duration                    : 1 h 54 min
    Overall bit rate mode       : Variable
    Overall bit rate            : 35.5 Mb/s
    Movie name                  : Night Watch (2004) REMUX 1080p Latino - CMHDD
    Encoded date                : UTC 2021-10-03 19:19:19
    Writing application         : mkvmerge v17.0.0 ('Be Ur Friend') 64-bit
    Writing library             : libebml v1.3.5 + libmatroska v1.4.8

    Video
    ID                          : 1
    Format                      : AVC
    Format/Info                 : Advanced Video Codec
    Format profile              : High@L4.1
    Format settings             : CABAC / 4 Ref Frames
    Format settings, CABAC      : Yes
    Format settings, Reference  : 4 frames
    Codec ID                    : V_MPEG4/ISO/AVC
    Duration                    : 1 h 54 min
    Bit rate mode               : Variable
    Bit rate                    : 30.1 Mb/s
    Maximum bit rate            : 32.5 Mb/s
    Width                       : 1 920 pixels
    Height                      : 1 080 pixels
    Display aspect ratio        : 16:9
    Frame rate mode             : Constant
    Frame rate                  : 23.976 (24000/1001) FPS
    Color space                 : YUV
    Chroma subsampling          : 4:2:0
    Bit depth                   : 8 bits
    Scan type                   : Progressive
    Bits/(Pixel*Frame)          : 0.605
    Stream size                 : 24.0 GiB (85%)
    Default                     : Yes
    Forced                      : No
    Color range                 : Limited
    Color primaries             : BT.709
    Transfer characteristics    : BT.709
    Matrix coefficients         : BT.709

    Audio #1
    ID                          : 2
    Format                      : DTS XLL
    Format/Info                 : Digital Theater Systems
    Commercial name             : DTS-HD Master Audio
    Codec ID                    : A_DTS
    Duration                    : 1 h 54 min
    Bit rate mode               : Variable
    Bit rate                    : 4 228 kb/s
    Channel(s)                  : 6 channels
    Channel layout              : C L R Ls Rs LFE
    Sampling rate               : 48.0 kHz
    Frame rate                  : 93.750 FPS (512 SPF)
    Bit depth                   : 24 bits
    Compression mode            : Lossless
    Stream size                 : 3.38 GiB (12%)
    Language                    : Russian
    Default                     : No
    Forced                      : No

    Audio #2
    ID                          : 3
    Format                      : DTS
    Format/Info                 : Digital Theater Systems
    Codec ID                    : A_DTS
    Duration                    : 1 h 54 min
    Bit rate mode               : Constant
    Bit rate                    : 768 kb/s
    Channel(s)                  : 6 channels
    Channel layout              : C L R Ls Rs LFE
    Sampling rate               : 48.0 kHz
    Frame rate                  : 93.750 FPS (512 SPF)
    Bit depth                   : 24 bits
    Compression mode            : Lossy
    Stream size                 : 628 MiB (2%)
    Language                    : English
    Default                     : No
    Forced                      : No

    Audio #3
    ID                          : 4
    Format                      : AC-3
    Format/Info                 : Audio Coding 3
    Commercial name             : Dolby Digital
    Codec ID                    : A_AC3
    Duration                    : 1 h 54 min
    Bit rate mode               : Constant
    Bit rate                    : 448 kb/s
    Channel(s)                  : 6 channels
    Channel layout              : L R C LFE Ls Rs
    Sampling rate               : 48.0 kHz
    Frame rate                  : 31.250 FPS (1536 SPF)
    Compression mode            : Lossy
    Stream size                 : 366 MiB (1%)
    Language                    : Spanish
    Service kind                : Complete Main
    Default                     : Yes
    Forced                      : No

    Text #1
    ID                          : 5
    Format                      : PGS
    Muxing mode                 : zlib
    Codec ID                    : S_HDMV/PGS
    Codec ID/Info               : Picture based subtitle format used on BDs/HD-DVDs
    Duration                    : 1 h 53 min
    Bit rate                    : 19.2 kb/s
    Count of elements           : 2084
    Stream size                 : 15.6 MiB (0%)
    Language                    : Spanish
    Default                     : No
    Forced                      : No

    Text #2
    ID                          : 6
    Format                      : PGS
    Muxing mode                 : zlib
    Codec ID                    : S_HDMV/PGS
    Codec ID/Info               : Picture based subtitle format used on BDs/HD-DVDs
    Duration                    : 1 h 53 min
    Bit rate                    : 30.6 kb/s
    Count of elements           : 2696
    Stream size                 : 24.9 MiB (0%)
    Language                    : Spanish
    Default                     : No
    Forced                      : No

    Menu
    00:00:00.000                : en:Chapter 1
    00:04:00.073                : en:Chapter 2
    00:10:54.028                : en:Chapter 3
    00:15:49.615                : en:Chapter 4
    00:19:26.790                : en:Chapter 5
    00:24:12.868                : en:Chapter 6
    00:28:15.110                : en:Chapter 7
    00:33:08.861                : en:Chapter 8
    00:38:08.160                : en:Chapter 9
    00:40:01.065                : en:Chapter 10
    00:43:40.951                : en:Chapter 11
    00:50:44.458                : en:Chapter 12
    00:58:33.051                : en:Chapter 13
    01:04:30.491                : en:Chapter 14
    01:09:26.996                : en:Chapter 15
    01:13:34.952                : en:Chapter 16
    01:24:07.542                : en:Chapter 17
    01:33:18.259                : en:Chapter 18
    01:37:39.562                : en:Chapter 19
    01:47:40.787                : en:Chapter 20

  • Peso: 28.4 GiB

Sinopsis

Al caer la noche, las fuerzas de la oscuridad combaten a los “Otros”, sobrehumanos, Guardianes de la Noche, cuya misión es patrullar y proteger a la humanidad, manteniendo la calma. Pero existe un temor constante de que una antigüa profecía se convierta en realidad: que un poderoso “Otro” aparecerá, será tentado por uno de los lados e inclinará la balanza, haciendo que se desate una guerra entre la luz y la oscuridad, cuyos resultados pueden ser catastróficos.

Ficha técnica

Video trailer de la película

Enlaces de descarga

Rip de Bluray

Descargar Night Watch (2004) REMUX 1080p Latino – CMHDD


Aportes de DPeliculasHDmega la pass es:dpeliculashdmega.org Aportes de CinemaniaHD la pass es:cinemaniahdd.com
Guardado en : Acción , Fantasía , Suspenso

Películas relacionadas

descargar Night Watch (2004) REMUX 1080p Latino – CMHDD Full 1080p 1080p gratis, Night Watch (2004) REMUX 1080p Latino – CMHDD Full 1080p mega 1 link, Night Watch (2004) REMUX 1080p Latino – CMHDD Full 1080p pelicula completa, descargar Night Watch (2004) REMUX 1080p Latino – CMHDD Full 1080p gratis en mega.

Night Watch (2004) REMUX 1080p Latino – CMHDD pelicula full hd, Night Watch (2004) REMUX 1080p Latino – CMHDD mega latino, Night Watch (2004) REMUX 1080p Latino – CMHDD 4k latino, Night Watch (2004) REMUX 1080p Latino – CMHDD pelicula completa, Night Watch (2004) REMUX 1080p Latino – CMHDD descargar gratis, descargar Night Watch (2004) REMUX 1080p Latino – CMHDD pelicula latino, Night Watch (2004) REMUX 1080p Latino – CMHDD 1 link mega, Night Watch (2004) REMUX 1080p Latino – CMHDD 1 link google drive, Night Watch (2004) REMUX 1080p Latino – CMHDD hd 1080p latino.