×

¿Problemas para descargar con Mozilla, EDGE? Deshabilita la opción "Abrir vinculos en una pestaña nueva" tal como lo muestra ésta imagen.

Night Sky (2022) Primera Temporada AMZN WEB-DL 1080p Latino

738 vistas

Información de Night Sky (2022) Primera Temporada AMZN WEB-DL 1080p Latino

Datos de la película

  • Calidad: 1080p
  • Audio: Español Latino AC3 5.1 WEB-DL - Ingles AC3 5.1 WEB-DL
  • Subtitulos: Español Latino SRT- FORZADOS SRT
  • Resolución: 1920x1080
  • Formato: MKV
  • Codec: H.264
  • Encoder: cinemaniahdd
  • Mediainfo: Clic para Mostrar Datos Ver
  • Night Sky T01E01 AMZN WEB-DL 1080p Latino [CNMNHDD].mkv
    Format                      : Matroska
    Format version              : Version 4
    File size                   : 2.82 GiB
    Duration                    : 55 min 33 s
    Overall bit rate            : 7 262 kb/s
    Movie name                  : Night Sky S01E01 - To The Stars [1080p] - CinemaniaHDD.Net
    Encoded date                : UTC 2022-05-20 00:19:13
    Writing application         : mkvmerge v56.1.0 ('My Friend') 64-bit
    Writing library             : libebml v1.4.2 + libmatroska v1.6.4

    Video
    ID                          : 1
    Format                      : AVC
    Format/Info                 : Advanced Video Codec
    Format profile              : High@L4
    Format settings             : CABAC / 4 Ref Frames
    Format settings, CABAC      : Yes
    Format settings, Reference  : 4 frames
    Codec ID                    : V_MPEG4/ISO/AVC
    Duration                    : 55 min 33 s
    Bit rate mode               : Constant
    Bit rate                    : 5 339 kb/s
    Nominal bit rate            : 10 000 kb/s
    Width                       : 1 920 pixels
    Height                      : 1 080 pixels
    Display aspect ratio        : 16:9
    Frame rate mode             : Constant
    Frame rate                  : 23.976 (24000/1001) FPS
    Color space                 : YUV
    Chroma subsampling          : 4:2:0
    Bit depth                   : 8 bits
    Scan type                   : Progressive
    Bits/(Pixel*Frame)          : 0.107
    Stream size                 : 2.07 GiB (74%)
    Title                       : CinemaniaHDD
    Default                     : Yes
    Forced                      : No
    Color range                 : Limited
    Color primaries             : BT.709
    Transfer characteristics    : BT.709
    Matrix coefficients         : BT.709

    Audio #1
    ID                          : 2
    Format                      : AC-3
    Format/Info                 : Audio Coding 3
    Commercial name             : Dolby Digital
    Codec ID                    : A_AC3
    Duration                    : 55 min 33 s
    Bit rate mode               : Constant
    Bit rate                    : 640 kb/s
    Channel(s)                  : 6 channels
    Channel layout              : L R C LFE Ls Rs
    Sampling rate               : 48.0 kHz
    Frame rate                  : 31.250 FPS (1536 SPF)
    Compression mode            : Lossy
    Stream size                 : 254 MiB (9%)
    Title                       : Español latino [CinemaniaHDD]
    Language                    : Spanish
    Service kind                : Complete Main
    Default                     : Yes
    Forced                      : No

    Audio #2
    ID                          : 3
    Format                      : E-AC-3
    Format/Info                 : Enhanced AC-3
    Commercial name             : Dolby Digital Plus
    Codec ID                    : A_EAC3
    Duration                    : 55 min 33 s
    Bit rate mode               : Constant
    Bit rate                    : 640 kb/s
    Channel(s)                  : 6 channels
    Channel layout              : L R C LFE Ls Rs
    Sampling rate               : 48.0 kHz
    Frame rate                  : 31.250 FPS (1536 SPF)
    Compression mode            : Lossy
    Stream size                 : 254 MiB (9%)
    Title                       : Español latino / E-AC3 [CinemaniaHDD]
    Language                    : Spanish
    Service kind                : Complete Main
    Default                     : No
    Forced                      : No

    Audio #3
    ID                          : 4
    Format                      : E-AC-3
    Format/Info                 : Enhanced AC-3
    Commercial name             : Dolby Digital Plus
    Codec ID                    : A_EAC3
    Duration                    : 55 min 33 s
    Bit rate mode               : Constant
    Bit rate                    : 640 kb/s
    Channel(s)                  : 6 channels
    Channel layout              : L R C LFE Ls Rs
    Sampling rate               : 48.0 kHz
    Frame rate                  : 31.250 FPS (1536 SPF)
    Compression mode            : Lossy
    Stream size                 : 254 MiB (9%)
    Title                       : Inglés [CinemaniaHDD]
    Language                    : English
    Service kind                : Complete Main
    Default                     : No
    Forced                      : No

    Text #1
    ID                          : 5
    Format                      : UTF-8
    Codec ID                    : S_TEXT/UTF8
    Codec ID/Info               : UTF-8 Plain Text
    Duration                    : 41 min 5 s
    Bit rate                    : 1 b/s
    Count of elements           : 17
    Stream size                 : 359 Bytes (0%)
    Title                       : Forzados [CinemaniaHDD]
    Language                    : Spanish
    Default                     : No
    Forced                      : Yes

    Text #2
    ID                          : 6
    Format                      : UTF-8
    Codec ID                    : S_TEXT/UTF8
    Codec ID/Info               : UTF-8 Plain Text
    Duration                    : 53 min 41 s
    Bit rate                    : 45 b/s
    Count of elements           : 579
    Stream size                 : 17.8 KiB (0%)
    Title                       : Español latino [CinemaniaHDD]
    Language                    : Spanish
    Default                     : No
    Forced                      : No

    Menu
    00:00:00.000                : Amazon Original
    00:00:05.000                : Studio Logo
    00:00:09.000                : Scene 3
    00:02:53.000                : Scene 4
    00:04:23.000                : Scene 5
    00:07:40.000                : Scene 6
    00:09:11.000                : Title Sequence
    00:09:20.000                : Scene 8
    00:13:06.000                : Scene 9
    00:14:06.000                : Scene 10
    00:14:50.000                : Scene 11
    00:15:23.000                : Scene 12
    00:15:47.000                : Scene 13
    00:17:09.000                : Scene 14
    00:18:23.000                : Scene 15
    00:19:28.000                : Scene 16
    00:19:45.000                : Scene 17
    00:20:32.000                : Scene 18
    00:21:45.000                : Scene 19
    00:22:22.000                : Scene 20
    00:23:10.000                : Scene 21
    00:23:46.000                : Scene 22
    00:24:11.000                : Scene 23
    00:26:49.000                : Scene 24
    00:27:13.000                : Scene 25
    00:29:44.000                : Scene 26
    00:33:37.000                : Scene 27
    00:34:13.000                : Scene 28
    00:35:53.000                : Scene 29
    00:36:50.000                : Scene 30
    00:38:33.000                : Scene 31
    00:40:01.000                : Scene 32
    00:45:40.000                : Scene 33
    00:48:09.000                : Scene 34
    00:49:28.000                : Scene 35
    00:50:08.000                : Scene 36
    00:52:41.000                : End Credits
    00:54:29.000                : Studio Logo
    00:54:43.000                : End Credits

     

  • Peso: 2.82 GiB Aprox ---- 23 GiB in 8 Chapters.

Sinopsis

Irene y Franklin York, una pareja de jubilados, tienen un secreto: una Cámara enterrada en el patio trasero que milagrosamente lleva a un extraño planeta desierto.

Ficha técnica

Video trailer de la película

Enlaces de descarga

Rip de Bluray

Descargar Night Sky (2022) Primera Temporada AMZN WEB-DL 1080p Latino




Aportes de DPeliculasHDmega la pass es:dpeliculashdmega.org Aportes de CinemaniaHD la pass es:cinemaniahdd.com
Guardado en : Drama , Sci-Fi & Fantasy , Series

Películas relacionadas

  • Jaula Mental (2022) HD 1080p Latino

    Jaula Mental (2022) HD 1080p Latino

    2022
    Jaula Mental (2022) HD 1080p Latino

    1h 47m 2022

    Descargar Jaula Mental (2022) HD 1080p Latino. Cuando un asesino que imita otros crímenes comienza a...

    Director: Mauro Borrelli

    Género: Crimen

    Actores: Victoria Fox

  • Jaula Mental (2022) PLACEBO Full HD 1080p Latino

    Jaula Mental (2022) PLACEBO Full HD 1080p Latino

    2022
    Jaula Mental (2022) PLACEBO Full HD 1080p Latino

    1h 47m 2022

    Descargar Jaula Mental (2022) PLACEBO Full HD 1080p Latino. Cuando un asesino que imita otros crímenes...

    Director: Mauro Borrelli

    Género: Crimen

    Actores: Victoria Fox

  • Jaula Mental (2022) REMUX 1080p Latino

    Jaula Mental (2022) REMUX 1080p Latino

    2022
    Jaula Mental (2022) REMUX 1080p Latino

    1h 47m 2022

    Descargar Jaula Mental (2022) REMUX 1080p Latino. Cuando un asesino que imita otros crímenes comienza...

    Director: Mauro Borrelli

    Género: Crimen

    Actores: Victoria Fox

  • Transfusion (2023) HD 1080p Latino

    Transfusion (2023) HD 1080p Latino

    2023
    Transfusion (2023) HD 1080p Latino

    1h 45m 2023

    Descargar Transfusion (2023) HD 1080p Latino. Un antiguo agente de las Fuerzas Especiales se ve empujado...

    Director: Matt Nable

    Género: Crimen

    Actores: Trystan Go

  • Transfusion (2023) PLACEBO Full HD 1080p Latino

    Transfusion (2023) PLACEBO Full HD 1080p Latino

    2023
    Transfusion (2023) PLACEBO Full HD 1080p Latino

    1h 45m 2023

    Descargar Transfusion (2023) PLACEBO Full HD 1080p Latino. Un antiguo agente de las Fuerzas Especiales...

    Director: Matt Nable

    Género: Crimen

    Actores: Trystan Go

descargar Night Sky (2022) Primera Temporada AMZN WEB-DL 1080p Latino 1080p 1080p gratis, Night Sky (2022) Primera Temporada AMZN WEB-DL 1080p Latino 1080p mega 1 link, Night Sky (2022) Primera Temporada AMZN WEB-DL 1080p Latino 1080p serie completa, descargar Night Sky (2022) Primera Temporada AMZN WEB-DL 1080p Latino 1080p gratis en mega.

Night Sky (2022) Primera Temporada AMZN WEB-DL 1080p Latino pelicula full hd, Night Sky (2022) Primera Temporada AMZN WEB-DL 1080p Latino mega latino, Night Sky (2022) Primera Temporada AMZN WEB-DL 1080p Latino 4k latino, Night Sky (2022) Primera Temporada AMZN WEB-DL 1080p Latino pelicula completa, Night Sky (2022) Primera Temporada AMZN WEB-DL 1080p Latino descargar gratis, descargar Night Sky (2022) Primera Temporada AMZN WEB-DL 1080p Latino pelicula latino, Night Sky (2022) Primera Temporada AMZN WEB-DL 1080p Latino 1 link mega, Night Sky (2022) Primera Temporada AMZN WEB-DL 1080p Latino 1 link google drive, Night Sky (2022) Primera Temporada AMZN WEB-DL 1080p Latino hd 1080p latino.
Comentarios 0