×

¿Problemas para descargar con Mozilla, EDGE? Deshabilita la opción "Abrir vinculos en una pestaña nueva" tal como lo muestra ésta imagen.

Night at the Museum Secret of the Tomb (2014) WEB-DL 4K HDR Latino – CMHDD

75 vistas

Información de Night at the Museum Secret of the Tomb (2014) WEB-DL 4K HDR Latino – CMHDD

Datos de la película

  • Calidad: 4K HDR
  • Audio: Español Latino AC3 5.1 WEB-DL - Ingles AC3 5.1 WEB-DL
  • Subtitulos: Español Latino SRT
  • Resolución: 3840x2160p
  • Formato: MKV
  • Codec: H.264
  • Encoder: Dracarys
  • Mediainfo: Clic para Mostrar Datos Ver
  • Format                      : Matroska
    Format version              : Version 4
    File size                   : 9.90 GiB
    Duration                    : 1 h 37 min
    Overall bit rate            : 14.5 Mb/s
    Movie name                  : Night at the Museum: Secret of the Tomb (2014) WEB-DL 4K HDR Latino - CMHDD
    Encoded date                : UTC 2023-12-25 18:50:01
    Writing application         : mkvmerge v47.0.0 ('Black Flag') 64-bit
    Writing library             : libebml v1.3.10 + libmatroska v1.5.2

    Video
    ID                          : 1
    Format                      : HEVC
    Format/Info                 : High Efficiency Video Coding
    Format profile              : Main 10@L5@High
    HDR format                  : SMPTE ST 2086, HDR10 compatible
    Codec ID                    : V_MPEGH/ISO/HEVC
    Duration                    : 1 h 37 min
    Bit rate                    : 13.5 Mb/s
    Width                       : 3 840 pixels
    Height                      : 2 160 pixels
    Display aspect ratio        : 16:9
    Frame rate mode             : Constant
    Frame rate                  : 23.976 (24000/1001) FPS
    Color space                 : YUV
    Chroma subsampling          : 4:2:0
    Bit depth                   : 10 bits
    Bits/(Pixel*Frame)          : 0.068
    Stream size                 : 9.20 GiB (93%)
    Default                     : Yes
    Forced                      : No
    Color range                 : Limited
    Color primaries             : BT.2020
    Transfer characteristics    : PQ
    Matrix coefficients         : BT.2020 non-constant
    Mastering display color pri : Display P3
    Mastering display luminance : min: 0.0001 cd/m2, max: 1000 cd/m2

    Audio #1
    ID                          : 2
    Format                      : AC-3
    Format/Info                 : Audio Coding 3
    Commercial name             : Dolby Digital
    Codec ID                    : A_AC3
    Duration                    : 1 h 37 min
    Bit rate mode               : Constant
    Bit rate                    : 640 kb/s
    Channel(s)                  : 6 channels
    Channel layout              : L R C LFE Ls Rs
    Sampling rate               : 48.0 kHz
    Frame rate                  : 31.250 FPS (1536 SPF)
    Compression mode            : Lossy
    Delay relative to video     : 5 ms
    Stream size                 : 448 MiB (4%)
    Language                    : Spanish
    Service kind                : Complete Main
    Default                     : Yes
    Forced                      : Yes

    Audio #2
    ID                          : 3
    Format                      : AC-3
    Format/Info                 : Audio Coding 3
    Commercial name             : Dolby Digital
    Codec ID                    : A_AC3
    Duration                    : 1 h 37 min
    Bit rate mode               : Constant
    Bit rate                    : 384 kb/s
    Channel(s)                  : 6 channels
    Channel layout              : L R C LFE Ls Rs
    Sampling rate               : 48.0 kHz
    Frame rate                  : 31.250 FPS (1536 SPF)
    Compression mode            : Lossy
    Stream size                 : 269 MiB (3%)
    Language                    : English
    Service kind                : Complete Main
    Default                     : No
    Forced                      : No

    Text
    ID                          : 4
    Format                      : UTF-8
    Codec ID                    : S_TEXT/UTF8
    Codec ID/Info               : UTF-8 Plain Text
    Duration                    : 1 h 29 min
    Bit rate                    : 62 b/s
    Frame rate                  : 0.261 FPS
    Count of elements           : 1408
    Stream size                 : 41.3 KiB (0%)
    Language                    : Spanish
    Default                     : No
    Forced                      : No

     

  • Peso: 9.90 GiB

Sinopsis

La tabla de Ahkmenrah, la que hace que las estatuas de los museos cobren vida, está perdiendo su magia. En un intento desesperado para proteger el valioso tesoro, Larry Daley viajará junto a sus amigos Theodore Roosevelt -Robin Williams en su última película-, el faraón Ahkmenrah, Atila, Jebediah Smith, Augustus Octavius y Sacagawea desde Nueva York hasta Londres. Allí intentarán contactar con alguien del Museo de Londres que les ayude a restaurar la magia y conocerán a Sir Lancelot y otros personajes del antiguo Egipto.

Ficha técnica

Video trailer de la película

Enlaces de descarga

Rip de Bluray

Descargar Night at the Museum Secret of the Tomb (2014) WEB-DL 4K HDR Latino – CMHDD




Aportes de DPeliculasHDmega la pass es:dpeliculashdmega.org Aportes de CinemaniaHD la pass es:cinemaniahdd.com Aportes recientes:cinemaniahdd.net
Guardado en : Aventura , Comedia , Familia , Fantasía

Películas relacionadas

descargar Night at the Museum Secret of the Tomb (2014) WEB-DL 4K HDR Latino – CMHDD 4K HDR 1080p gratis, Night at the Museum Secret of the Tomb (2014) WEB-DL 4K HDR Latino – CMHDD 4K HDR mega 1 link, Night at the Museum Secret of the Tomb (2014) WEB-DL 4K HDR Latino – CMHDD 4K HDR pelicula completa, descargar Night at the Museum Secret of the Tomb (2014) WEB-DL 4K HDR Latino – CMHDD 4K HDR gratis en mega.

Night at the Museum Secret of the Tomb (2014) WEB-DL 4K HDR Latino – CMHDD pelicula full hd, Night at the Museum Secret of the Tomb (2014) WEB-DL 4K HDR Latino – CMHDD mega latino, Night at the Museum Secret of the Tomb (2014) WEB-DL 4K HDR Latino – CMHDD 4k latino, Night at the Museum Secret of the Tomb (2014) WEB-DL 4K HDR Latino – CMHDD pelicula completa, Night at the Museum Secret of the Tomb (2014) WEB-DL 4K HDR Latino – CMHDD descargar gratis, descargar Night at the Museum Secret of the Tomb (2014) WEB-DL 4K HDR Latino – CMHDD pelicula latino, Night at the Museum Secret of the Tomb (2014) WEB-DL 4K HDR Latino – CMHDD 1 link mega, Night at the Museum Secret of the Tomb (2014) WEB-DL 4K HDR Latino – CMHDD 1 link google drive, Night at the Museum Secret of the Tomb (2014) WEB-DL 4K HDR Latino – CMHDD hd 1080p latino.
Comentarios 0