×

¿Problemas para descargar con Mozilla, EDGE? Deshabilita la opción "Abrir vinculos en una pestaña nueva" tal como lo muestra ésta imagen.

Night at the Museum Battle of the Smithsonian (2009) WEB-DL 4K HDR Latino – CMHDD

97 vistas

Información de Night at the Museum Battle of the Smithsonian (2009) WEB-DL 4K HDR Latino – CMHDD

Datos de la película

  • Calidad: 4K HDR
  • Audio: Español Latino AC3 5.1 WEB-DL - Ingles AC3 5.1 WEB-DL
  • Subtitulos: Español Latino SRT
  • Resolución: 3840x2160p
  • Formato: MKV
  • Codec: H.264
  • Encoder: Dracarys
  • Mediainfo: Clic para Mostrar Datos Ver
  • Format                      : Matroska
    Format version              : Version 4
    File size                   : 11.4 GiB
    Duration                    : 1 h 44 min
    Overall bit rate            : 15.6 Mb/s
    Movie name                  : Night at the Museum: Battle of the Smithsonian (2009) WEB-DL 4K HDR Latino - CMHDD
    Encoded date                : UTC 2023-12-25 18:48:51
    Writing application         : mkvmerge v47.0.0 ('Black Flag') 64-bit
    Writing library             : libebml v1.3.10 + libmatroska v1.5.2

    Video
    ID                          : 1
    Format                      : HEVC
    Format/Info                 : High Efficiency Video Coding
    Format profile              : Main 10@L5@High
    HDR format                  : SMPTE ST 2086, HDR10 compatible
    Codec ID                    : V_MPEGH/ISO/HEVC
    Duration                    : 1 h 44 min
    Bit rate                    : 14.6 Mb/s
    Width                       : 3 840 pixels
    Height                      : 2 160 pixels
    Display aspect ratio        : 16:9
    Frame rate mode             : Constant
    Frame rate                  : 23.976 (24000/1001) FPS
    Color space                 : YUV
    Chroma subsampling          : 4:2:0
    Bit depth                   : 10 bits
    Bits/(Pixel*Frame)          : 0.074
    Stream size                 : 10.7 GiB (93%)
    Default                     : Yes
    Forced                      : No
    Color range                 : Limited
    Color primaries             : BT.2020
    Transfer characteristics    : PQ
    Matrix coefficients         : BT.2020 non-constant
    Mastering display color pri : Display P3
    Mastering display luminance : min: 0.0001 cd/m2, max: 1000 cd/m2

    Audio #1
    ID                          : 2
    Format                      : AC-3
    Format/Info                 : Audio Coding 3
    Commercial name             : Dolby Digital
    Codec ID                    : A_AC3
    Duration                    : 1 h 44 min
    Bit rate mode               : Constant
    Bit rate                    : 640 kb/s
    Channel(s)                  : 6 channels
    Channel layout              : L R C LFE Ls Rs
    Sampling rate               : 48.0 kHz
    Frame rate                  : 31.250 FPS (1536 SPF)
    Compression mode            : Lossy
    Delay relative to video     : 29 ms
    Stream size                 : 479 MiB (4%)
    Language                    : Spanish
    Service kind                : Complete Main
    Default                     : Yes
    Forced                      : Yes

    Audio #2
    ID                          : 3
    Format                      : AC-3
    Format/Info                 : Audio Coding 3
    Commercial name             : Dolby Digital
    Codec ID                    : A_AC3
    Duration                    : 1 h 44 min
    Bit rate mode               : Constant
    Bit rate                    : 384 kb/s
    Channel(s)                  : 6 channels
    Channel layout              : L R C LFE Ls Rs
    Sampling rate               : 48.0 kHz
    Frame rate                  : 31.250 FPS (1536 SPF)
    Compression mode            : Lossy
    Delay relative to video     : 24 ms
    Stream size                 : 288 MiB (2%)
    Language                    : English
    Service kind                : Complete Main
    Default                     : No
    Forced                      : No

    Text
    ID                          : 4
    Format                      : UTF-8
    Codec ID                    : S_TEXT/UTF8
    Codec ID/Info               : UTF-8 Plain Text
    Duration                    : 1 h 38 min
    Bit rate                    : 59 b/s
    Frame rate                  : 0.230 FPS
    Count of elements           : 1366
    Stream size                 : 42.8 KiB (0%)
    Language                    : Spanish
    Default                     : No
    Forced                      : No

     

  • Peso: 11.4 GiB

Sinopsis

El vigilante jurado Larry Daley (Ben Stiller) se ve obligado a decir adiós a todos sus amigos cuando deciden hacer el Museo de Ciencias Naturales más «interactivo» y sustituyen todas las figuras por hologramas. Sus amigos históricos son empaquetados y enviados a los archivos del famoso Smithsonian, en Washington, DC., el museo más grande del mundo. No han pasado ni 24 horas cuando Larry recibe una llamada de Jedediah, el cowboy en miniatura, y descubre que la tabla de Ahkmenrah ha sido extraviada y esto ha hecho que el Smithsonian cobre vida. Para salvar a sus amigos, Larry tendrá que viajar a Washington, DC y luchar contra Kahmunrah, Al Capone, Iván el Terrible y Napoleón que han planeado un complot para apoderarse de la tabla. En medio del caos, Larry hará nuevos amigos, como Amelia Earhart o Albert Einstein que le ayudarán a detener el complot y salvar el museo.

Ficha técnica

Video trailer de la película

Enlaces de descarga

Rip de Bluray

Descargar Night at the Museum Battle of the Smithsonian (2009) WEB-DL 4K HDR Latino – CMHDD




Aportes de DPeliculasHDmega la pass es:dpeliculashdmega.org Aportes de CinemaniaHD la pass es:cinemaniahdd.com Aportes recientes:cinemaniahdd.net
Guardado en : Acción , Aventura , Comedia , Familia , Fantasía

Películas relacionadas

  • Good Burger 2 (2023) HD 1080p Latino

    Good Burger 2 (2023) HD 1080p Latino

    2023
    Good Burger 2 (2023) HD 1080p Latino

    1h 31m 2023

    Descargar Good Burger 2 (2023) HD 1080p Latino. Después de que su último invento falla, Ed le da la...

    Director: Ross Novie

    Género: Comedia

    Actores: Zoe Saldana

  • Good Burger 2 (2023) PLACEBO Full HD 1080p Latino

    Good Burger 2 (2023) PLACEBO Full HD 1080p Latino

    2023
    Good Burger 2 (2023) PLACEBO Full HD 1080p Latino

    1h 31m 2023

    Descargar Good Burger 2 (2023) PLACEBO Full HD 1080p Latino. Después de que su último invento falla,...

    Director: Ross Novie

    Género: Comedia

    Actores: Zoe Saldana

  • Good Burger 2 (2023) REMUX 1080p Latino

    Good Burger 2 (2023) REMUX 1080p Latino

    2023
    Good Burger 2 (2023) REMUX 1080p Latino

    1h 31m 2023

    Descargar Good Burger 2 (2023) REMUX 1080p Latino. Después de que su último invento falla, Ed le da...

    Director: Ross Novie

    Género: Comedia

    Actores: Zoe Saldana

descargar Night at the Museum Battle of the Smithsonian (2009) WEB-DL 4K HDR Latino – CMHDD 4K HDR 1080p gratis, Night at the Museum Battle of the Smithsonian (2009) WEB-DL 4K HDR Latino – CMHDD 4K HDR mega 1 link, Night at the Museum Battle of the Smithsonian (2009) WEB-DL 4K HDR Latino – CMHDD 4K HDR pelicula completa, descargar Night at the Museum Battle of the Smithsonian (2009) WEB-DL 4K HDR Latino – CMHDD 4K HDR gratis en mega.

Night at the Museum Battle of the Smithsonian (2009) WEB-DL 4K HDR Latino – CMHDD pelicula full hd, Night at the Museum Battle of the Smithsonian (2009) WEB-DL 4K HDR Latino – CMHDD mega latino, Night at the Museum Battle of the Smithsonian (2009) WEB-DL 4K HDR Latino – CMHDD 4k latino, Night at the Museum Battle of the Smithsonian (2009) WEB-DL 4K HDR Latino – CMHDD pelicula completa, Night at the Museum Battle of the Smithsonian (2009) WEB-DL 4K HDR Latino – CMHDD descargar gratis, descargar Night at the Museum Battle of the Smithsonian (2009) WEB-DL 4K HDR Latino – CMHDD pelicula latino, Night at the Museum Battle of the Smithsonian (2009) WEB-DL 4K HDR Latino – CMHDD 1 link mega, Night at the Museum Battle of the Smithsonian (2009) WEB-DL 4K HDR Latino – CMHDD 1 link google drive, Night at the Museum Battle of the Smithsonian (2009) WEB-DL 4K HDR Latino – CMHDD hd 1080p latino.
Comentarios 0