×

¿Problemas para descargar con Mozilla, EDGE? Deshabilita la opción "Abrir vinculos en una pestaña nueva" tal como lo muestra ésta imagen.

Night at the Museum (2006) WEB-DL 4K HDR Latino – CMHDD

167 vistas

Información de Night at the Museum (2006) WEB-DL 4K HDR Latino – CMHDD

Datos de la película

  • Calidad: 4K HDR
  • Audio: Español Latino AC3 5.1 WEB-DL - Ingles AC3 5.1 WEB-DL
  • Subtitulos: Español Latino SRT- FORZADOS SRT
  • Resolución: 3840x2160p
  • Formato: MKV
  • Codec: H.264
  • Encoder: Dracarys
  • Mediainfo: Clic para Mostrar Datos Ver
  • Format                      : Matroska
    Format version              : Version 4
    File size                   : 12.6 GiB
    Duration                    : 1 h 48 min
    Overall bit rate            : 16.6 Mb/s
    Movie name                  : Night at the Museum (2006) WEB-DL 4K HDR Latino - CMHDD
    Encoded date                : UTC 2023-12-25 18:47:34
    Writing application         : mkvmerge v47.0.0 ('Black Flag') 64-bit
    Writing library             : libebml v1.3.10 + libmatroska v1.5.2

    Video
    ID                          : 1
    Format                      : HEVC
    Format/Info                 : High Efficiency Video Coding
    Format profile              : Main 10@L5@High
    HDR format                  : SMPTE ST 2086, HDR10 compatible
    Codec ID                    : V_MPEGH/ISO/HEVC
    Duration                    : 1 h 48 min
    Bit rate                    : 15.5 Mb/s
    Width                       : 3 840 pixels
    Height                      : 2 160 pixels
    Display aspect ratio        : 16:9
    Frame rate mode             : Constant
    Frame rate                  : 23.976 (24000/1001) FPS
    Color space                 : YUV
    Chroma subsampling          : 4:2:0
    Bit depth                   : 10 bits
    Bits/(Pixel*Frame)          : 0.078
    Stream size                 : 11.8 GiB (94%)
    Language                    : English
    Default                     : Yes
    Forced                      : No
    Color range                 : Limited
    Color primaries             : BT.2020
    Transfer characteristics    : PQ
    Matrix coefficients         : BT.2020 non-constant
    Mastering display color pri : Display P3
    Mastering display luminance : min: 0.0001 cd/m2, max: 1000 cd/m2

    Audio #1
    ID                          : 2
    Format                      : AC-3
    Format/Info                 : Audio Coding 3
    Commercial name             : Dolby Digital
    Codec ID                    : A_AC3
    Duration                    : 1 h 48 min
    Bit rate mode               : Constant
    Bit rate                    : 640 kb/s
    Channel(s)                  : 6 channels
    Channel layout              : L R C LFE Ls Rs
    Sampling rate               : 48.0 kHz
    Frame rate                  : 31.250 FPS (1536 SPF)
    Compression mode            : Lossy
    Delay relative to video     : 5 ms
    Stream size                 : 497 MiB (4%)
    Language                    : Spanish
    Service kind                : Complete Main
    Default                     : Yes
    Forced                      : Yes

    Audio #2
    ID                          : 3
    Format                      : AC-3
    Format/Info                 : Audio Coding 3
    Commercial name             : Dolby Digital
    Codec ID                    : A_AC3
    Duration                    : 1 h 48 min
    Bit rate mode               : Constant
    Bit rate                    : 384 kb/s
    Channel(s)                  : 6 channels
    Channel layout              : L R C LFE Ls Rs
    Sampling rate               : 48.0 kHz
    Frame rate                  : 31.250 FPS (1536 SPF)
    Compression mode            : Lossy
    Stream size                 : 298 MiB (2%)
    Language                    : English
    Service kind                : Complete Main
    Default                     : No
    Forced                      : No

    Text
    ID                          : 4
    Format                      : UTF-8
    Codec ID                    : S_TEXT/UTF8
    Codec ID/Info               : UTF-8 Plain Text
    Duration                    : 1 h 43 min
    Bit rate                    : 52 b/s
    Frame rate                  : 0.198 FPS
    Count of elements           : 1234
    Stream size                 : 39.5 KiB (0%)
    Language                    : Spanish
    Default                     : No
    Forced                      : No

     

  • Peso: 12.6 GiB

Sinopsis

Un padre divorciado trata de establecerse, impresionar a su hijo y encontrar su destino. Él se presenta para un trabajo como vigilante nocturno en el Museo Americano de Historia Natural de la ciudad de Nueva York y, posteriormente, descubre que los objetos expuestos, animados por un artefacto mágico de Egipto, vuelven a la vida durante la noche. Al principio le va muy mal tratando de mantener el orden y la calma en el museo, pero al final se vuelve muy buen amigo de todos y juntos ayudan a recuperar aquel artefacto mágico egipcio, ya que ha sido robado por los antiguos vigilantes del museo.

Ficha técnica

Video trailer de la película

Enlaces de descarga

Rip de Bluray

Descargar Night at the Museum (2006) WEB-DL 4K HDR Latino – CMHDD




Aportes de DPeliculasHDmega la pass es:dpeliculashdmega.org Aportes de CinemaniaHD la pass es:cinemaniahdd.com Aportes recientes:cinemaniahdd.net
Guardado en : Acción , Aventura , Comedia , Familia , Fantasía

Películas relacionadas

  • Cómplices del engaño (2024) HD 1080p Latino

    Cómplices del engaño (2024) HD 1080p Latino

    2024
    Cómplices del engaño (2024) HD 1080p Latino

    1h 56m 2024

    Descargar Cómplices del engaño (2024) HD 1080p Latino. Gary Johnson es el asesino profesional más...

    Director: T.J. Larson

    Género: Comedia

    Actores: Tre Styles

  • Cómplices del engaño (2024) REMUX 1080p Latino

    Cómplices del engaño (2024) REMUX 1080p Latino

    2024
    Cómplices del engaño (2024) REMUX 1080p Latino

    1h 56m 2024

    Descargar Cómplices del engaño (2024) REMUX 1080p Latino. Gary Johnson es el asesino profesional más...

    Director: T.J. Larson

    Género: Comedia

    Actores: Tre Styles

  • True Lies (1994) REMUX 1080p Latino – CMHDD

    True Lies (1994) REMUX 1080p Latino – CMHDD

    1994
    True Lies (1994) REMUX 1080p Latino – CMHDD

    2h 21m 1994

    El agente especial Harry Tasker mantiene una doble vida. Harry habla seis idiomas, conoce y domina todas...

    Director: Sharron Reynolds-Enriquez

    Género: Acción

    Actores: William Shipman

descargar Night at the Museum (2006) WEB-DL 4K HDR Latino – CMHDD 4K HDR 1080p gratis, Night at the Museum (2006) WEB-DL 4K HDR Latino – CMHDD 4K HDR mega 1 link, Night at the Museum (2006) WEB-DL 4K HDR Latino – CMHDD 4K HDR pelicula completa, descargar Night at the Museum (2006) WEB-DL 4K HDR Latino – CMHDD 4K HDR gratis en mega.

Night at the Museum (2006) WEB-DL 4K HDR Latino – CMHDD pelicula full hd, Night at the Museum (2006) WEB-DL 4K HDR Latino – CMHDD mega latino, Night at the Museum (2006) WEB-DL 4K HDR Latino – CMHDD 4k latino, Night at the Museum (2006) WEB-DL 4K HDR Latino – CMHDD pelicula completa, Night at the Museum (2006) WEB-DL 4K HDR Latino – CMHDD descargar gratis, descargar Night at the Museum (2006) WEB-DL 4K HDR Latino – CMHDD pelicula latino, Night at the Museum (2006) WEB-DL 4K HDR Latino – CMHDD 1 link mega, Night at the Museum (2006) WEB-DL 4K HDR Latino – CMHDD 1 link google drive, Night at the Museum (2006) WEB-DL 4K HDR Latino – CMHDD hd 1080p latino.
Comentarios 0