Ni en tus sueños (2010) Full 1080p Latino

2.138 vistas
1 estrella2 estrellas3 estrellas4 estrellas5 estrellas (2 votos, promedio: 5,00 de 5)
Cargando…

Información de Ni en tus sueños (2010) Full 1080p Latino

Datos de la película

  • Calidad: Full 1080p
  • Audio: Español Latino AC3 5.1 Netflix - Ingles DTS 5.1 BLURAY
  • Subtitulos: Español Latino PGS - Ingles PGS
  • Resolución: 1920x1080p
  • Formato: MKV
  • Codec: H.264
  • Encoder: CinefiloCool
  • Mediainfo: Clic para Mostrar Datos Ver
  • Ni En Tus Sueños (2010) Full 1080p Latino.mkv
    Format                      : Matroska
    Format version              : Version 4
    File size                   : 7.77 GiB
    Duration                    : 1 h 44 min
    Overall bit rate mode       : Variable
    Overall bit rate            : 10.6 Mb/s
    Movie name                  : CinemaniaHDD.Net
    Encoded date                : UTC 2018-12-09 05:53:46 / UTC 2018-12-08T20:38:25Z
    Writing application         : mkvmerge v28.2.0 ('The Awakening') 64-bit
    Writing library             : libebml v1.3.6 + libmatroska v1.4.9 / Lavf57.7.2

    Video
    ID                          : 1
    Format                      : AVC
    Format/Info                 : Advanced Video Codec
    Format profile              : [email protected]
    Format settings             : CABAC / 4 Ref Frames
    Format settings, CABAC      : Yes
    Format settings, ReFrames   : 4 frames
    Codec ID                    : V_MPEG4/ISO/AVC
    Duration                    : 1 h 44 min
    Bit rate                    : 5 888 kb/s
    Width                       : 1 920 pixels
    Height                      : 1 080 pixels
    Display aspect ratio        : 16:9
    Frame rate mode             : Constant
    Frame rate                  : 23.976 (24000/1001) FPS
    Color space                 : YUV
    Chroma subsampling          : 4:2:0
    Bit depth                   : 8 bits
    Scan type                   : Progressive
    Bits/(Pixel*Frame)          : 0.118
    Stream size                 : 4.30 GiB (55%)
    Title                       : Full HD1080p [Bluray]
    Writing library             : x264 core 155 r2901 7d0ff22
    Encoding settings           : cabac=1 / ref=4 / deblock=1:0:0 / analyse=0x3:0x133 / me=esa / subme=10 / psy=1 / psy_rd=1.00:0.00 / mixed_ref=1 / me_range=24 / chroma_me=1 / trellis=2 / 8x8dct=1 / cqm=0 / deadzone=21,11 / fast_pskip=1 / chroma_qp_offset=-2 / threads=34 / lookahead_threads=5 / sliced_threads=0 / nr=0 / decimate=1 / interlaced=0 / bluray_compat=0 / constrained_intra=0 / bframes=8 / b_pyramid=2 / b_adapt=2 / b_bias=0 / direct=3 / weightb=1 / open_gop=0 / weightp=2 / keyint=240 / keyint_min=24 / scenecut=40 / intra_refresh=0 / rc_lookahead=60 / rc=crf / mbtree=1 / crf=19.0 / qcomp=0.60 / qpmin=0 / qpmax=69 / qpstep=4 / vbv_maxrate=62500 / vbv_bufsize=78125 / crf_max=0.0 / nal_hrd=none / filler=0 / ip_ratio=1.40 / aq=1:1.00
    Default                     : Yes
    Forced                      : Yes
    Color range                 : Limited
    Color primaries             : BT.709
    Transfer characteristics    : BT.709
    Matrix coefficients         : BT.709

    Audio #1
    ID                          : 2
    Format                      : AC-3
    Format/Info                 : Audio Coding 3
    Commercial name             : Dolby Digital
    Codec ID                    : A_AC3
    Duration                    : 1 h 44 min
    Bit rate mode               : Constant
    Bit rate                    : 384 kb/s
    Channel(s)                  : 6 channels
    Channel layout              : L R C LFE Ls Rs
    Sampling rate               : 48.0 kHz
    Frame rate                  : 31.250 FPS (1536 SPF)
    Bit depth                   : 16 bits
    Compression mode            : Lossy
    Stream size                 : 287 MiB (4%)
    Title                       : AC3_5.1_NF_Esp
    Language                    : Spanish
    Service kind                : Complete Main
    Default                     : Yes
    Forced                      : Yes

    Audio #2
    ID                          : 3
    Format                      : DTS XLL
    Format/Info                 : Digital Theater Systems
    Commercial name             : DTS-HD Master Audio
    Codec ID                    : A_DTS
    Duration                    : 1 h 44 min
    Bit rate mode               : Variable
    Bit rate                    : 4 332 kb/s
    Channel(s)                  : 6 channels
    Channel layout              : C L R Ls Rs LFE
    Sampling rate               : 48.0 kHz
    Frame rate                  : 93.750 FPS (512 SPF)
    Bit depth                   : 24 bits
    Compression mode            : Lossless
    Stream size                 : 3.16 GiB (41%)
    Title                       : DTS-MA_5.1_Bluray_Eng
    Language                    : English
    Default                     : No
    Forced                      : No

    Text #1
    ID                          : 4
    Format                      : PGS
    Muxing mode                 : zlib
    Codec ID                    : S_HDMV/PGS
    Codec ID/Info               : Picture based subtitle format used on BDs/HD-DVDs
    Duration                    : 1 h 32 min
    Bit rate                    : 222 b/s
    Count of elements           : 14
    Stream size                 : 151 KiB (0%)
    Title                       : Sub_Forzados [PGS]
    Language                    : Spanish
    Default                     : Yes
    Forced                      : Yes

    Text #2
    ID                          : 5
    Format                      : PGS
    Muxing mode                 : zlib
    Codec ID                    : S_HDMV/PGS
    Codec ID/Info               : Picture based subtitle format used on BDs/HD-DVDs
    Duration                    : 1 h 38 min
    Bit rate                    : 61.7 kb/s
    Count of elements           : 3122
    Stream size                 : 43.7 MiB (1%)
    Title                       : Sub_Esp [PGS]
    Language                    : Spanish
    Default                     : No
    Forced                      : No

    Text #3
    ID                          : 6
    Format                      : PGS
    Muxing mode                 : zlib
    Codec ID                    : S_HDMV/PGS
    Codec ID/Info               : Picture based subtitle format used on BDs/HD-DVDs
    Duration                    : 1 h 38 min
    Bit rate                    : 61.4 kb/s
    Count of elements           : 3138
    Stream size                 : 43.4 MiB (1%)
    Title                       : Sub_Eng [PGS]
    Language                    : English
    Default                     : No
    Forced                      : No

    Menu
    00:00:00.000                : :Chapter 1
    00:03:29.835                : :Chapter 2
    00:06:50.911                : :Chapter 3
    00:11:51.753                : :Chapter 4
    00:16:53.804                : :Chapter 5
    00:22:41.610                : :Chapter 6
    00:27:37.614                : :Chapter 7
    00:35:42.849                : :Chapter 8
    00:44:07.645                : :Chapter 9
    00:51:58.240                : :Chapter 10
    01:02:12.270                : :Chapter 11
    01:07:22.622                : :Chapter 12
    01:14:18.496                : :Chapter 13
    01:22:37.411                : :Chapter 14
    01:27:59.441                : :Chapter 15
    01:34:14.065                : :Chapter 16

  • Peso: 7.77 GiB

Sinopsis

Descargar Ni en tus sueños (2010) Full 1080p Latino, Mega, Google Drive. Kirk (Jay Baruchel, “Tropic Thunder”) es un tipo normal y corriente, que no suele tener éxito con la chicas, que se queda sorprendido cuando un día una chica despampanante muestra interés en él. Kirk no puede creer en la suerte que está teniendo. A pesar de que está estancado en un trabajo sin futuro como guadia de seguridad del aeropuerto, contra todo pronóstico, Molly (Alice Eve), una chica con éxito y escandalosamente guapa, se enamora de él. Kirk está aturdido. También lo están sus amigos, su familia y hasta su ex-novia. Ahora tiene que encontrar la manera de hacer que la relación funcione, a pesar de que él es el primero en admitir que ella está totalmente “fuera de su liga”.

Ficha técnica

Video trailer de la película

Enlaces de descarga

Rip de Bluray

Descargar Ni en tus sueños (2010) Full 1080p Latino




Aportes de DPeliculasHDmega la pass es:dpeliculashdmega.org Aportes de CinemaniaHD la pass es:cinemaniahdd.com

Películas relacionadas

  • Escuadrón suicida (2016) Extended Full 1080p Latino

    2016
    Escuadrón suicida (2016) Extended Full 1080p Latino

    5.0 2 h 14 min 2016

    Descargar Escuadrón suicida (2016) Extended 1080p Latino, Mega, Google Drive, Torrent. Mientras el gobierno...

    Director: Shane B. Scott

    Género: Acción

    Actores: William Hainsworth

  • Nace Una Estrella (2018) Web-DL 1080p Latino

    2018
    Nace Una Estrella (2018) Web-DL 1080p Latino

    3.0 2h 15m 2018

    Descargar Nace Una Estrella (2018) Web-DL 1080p Latino, Mega, Google Drive, Torrent. Jackson Maine es...

    Director: Bradley Cooper

    Género: Drama

    Actores: Willam Belli

  • Time Freak (2018) Full 1080p Español Latino

    2018
    Time Freak (2018) Full 1080p Español Latino

    4.0 1h 44m 2018

    Descargar Time Freak (2018) Full 1080p Latino, Mega, Google Drive, Torrent. Un joven estudiante de física...

    Director: Andrew Bowler

    Género: Ciencia ficción

    Actores: William Peltz

Comentarios 0